John Surman - The Spaces In Between
Страна: Germany
Жанр: Jazz
Год выпуска: 2007
Формат: FLAC (image + .cue)
Битрейт аудио: lossless
Продолжительность: 1:01:40
Трэклист:
Moonlighter
You Never Know
Wayfarers All
Now And Again
Winter Wish
The Spaces In Between
Now See!
Mimosa
Hubbub
Where Fortune Smiles
Leaving The Harrow
Доп. информация:
John Surman: soprano and baritone saxophones, bass clarinet
Chris Laurence: double-bass
Trans4mation
Rita Manning: violin
Patrick Kiernan: violin
Bill Hawkes: viola
Nick Cooper: cello
Recorded February 2006
ECM 1956
Смотреть сюда background и сюда "Coruscating" (релиз ordo)

EAC Report

Exact Audio Copy V0.99 prebeta 4 from 23. January 2008
EAC extraction logfile from 5. March 2008, 20:42
John Surman / The Spaces In Between
Used drive : MATSHITADVD-RAM UJ-840S Adapter: 1 ID: 0
Read mode : Secure
Utilize accurate stream : Yes
Defeat audio cache : Yes
Make use of C2 pointers : No
Read offset correction : 102
Overread into Lead-In and Lead-Out : No
Fill up missing offset samples with silence : Yes
Delete leading and trailing silent blocks : No
Null samples used in CRC calculations : No
Used interface : Installed external ASPI interface
Used output format : User Defined Encoder
Selected bitrate : 1024 kBit/s
Quality : High
Add ID3 tag : No
Command line compressor : C:\Program Files\Exact Audio Copy\FLAC\FLAC.EXE
Additional command line options : -6 -V -T "ARTIST=%a" -T "TITLE=%t" -T "ALBUM=%g" -T "DATE=%y" -T "TRACKNUMBER=%n" -T "GENRE=%m" -T "COMMENT=%e" %s -o %d
TOC of the extracted CD
Track | Start | Length | Start sector | End sector
---------------------------------------------------------
1 | 0:00.00 | 6:25.00 | 0 | 28874
2 | 6:25.00 | 5:30.53 | 28875 | 53677
3 | 11:55.53 | 6:02.22 | 53678 | 80849
4 | 17:58.00 | 7:31.00 | 80850 | 114674
5 | 25:29.00 | 4:34.51 | 114675 | 135275
6 | 30:03.51 | 8:18.14 | 135276 | 172639
7 | 38:21.65 | 3:11.43 | 172640 | 187007
8 | 41:33.33 | 4:41.50 | 187008 | 208132
9 | 46:15.08 | 3:56.63 | 208133 | 225895
10 | 50:11.71 | 4:39.50 | 225896 | 246870
11 | 54:51.46 | 6:48.29 | 246871 | 277499
Range status and errors
Selected range
Filename F:\u\John Surman - The Spaces In Between.wav
Peak level 100.0 %
Range quality 100.0 %
Copy CRC 1F04A5D2
Copy OK
No errors occurred
AccurateRip summary
Track 1 not present in database
Track 2 not present in database
Track 3 not present in database
Track 4 not present in database
Track 5 not present in database
Track 6 not present in database
Track 7 not present in database
Track 8 not present in database
Track 9 not present in database
Track 10 not present in database
Track 11 not present in database
None of the tracks are present in the AccurateRip database
End of status report

If you like the topic, please click share to help develop our site.

To download the file disable ad blocking, and reload the page.

disable adblock How to disable ad blocking?

Download by magnet link 256 MB Download Torrent

Login using:

Similar topics



   
Current time is: 19-Jul 13:01 :: All times are UTC + 3