John Surman - A Biography Of The Rev. Absalom Dawe (ECM 1528)
Жанр: Contemporary Jazz/ECM
Год выпуска диска: 1995
Производитель диска: Germany
Аудио кодек: FLAC
Тип рипа: image+.cue
Битрейт аудио: lossless
Продолжительность: 49 минут 40 секунд
Трэклист:

A Biography Of The Rev. Absalom Dawe

1. First Light 2:41
2. Countless Journeys 7:31
3. A Monastic Calling 5:53
4. Druid's Circle 2:44
5. 'Twas But Piety 7:21
6. Three Aspects 2:50
7. The Long Narrow Road 2:46
8. Wayfarer 9:28
9. The Far Corners 6:34
10. An Image 1:25
Доп. информация:
all composed by Surman
recorded October 1994, Rainbow Studio, Oslo
John Surman, baritone and soprano saxophones, alto and bass clarinets, keyboards

EAC-log

Exact Audio Copy V0.99 prebeta 4 from 23. January 2008
EAC extraction logfile from 30. March 2009, 23:22
John Surman / A biography of the Rev Absalom Dawe
Used drive : ASUS DRW-2014L1T Adapter: 3 ID: 0
Read mode : Secure
Utilize accurate stream : Yes
Defeat audio cache : Yes
Make use of C2 pointers : No
Read offset correction : 6
Overread into Lead-In and Lead-Out : No
Fill up missing offset samples with silence : Yes
Delete leading and trailing silent blocks : No
Null samples used in CRC calculations : Yes
Used interface : Installed external ASPI interface
Used output format : User Defined Encoder
Selected bitrate : 768 kBit/s
Quality : High
Add ID3 tag : No
Command line compressor : C:\Program Files\FLAC\flac.exe
Additional command line options : -8 -V -T "ARTIST=%a" -T "TITLE=%t" -T "ALBUM=%g" -T "DATE=%y" -T "TRACKNUMBER=%n" -T "GENRE=%m" -T "COMMENT=EAC FLAC -8" %s
TOC of the extracted CD
Track | Start | Length | Start sector | End sector
---------------------------------------------------------
1 | 0:00.33 | 2:45.12 | 33 | 12419
2 | 2:45.45 | 7:34.25 | 12420 | 46494
3 | 10:19.70 | 5:55.18 | 46495 | 73137
4 | 16:15.13 | 2:46.60 | 73138 | 85647
5 | 19:01.73 | 7:23.40 | 85648 | 118912
6 | 26:25.38 | 2:53.17 | 118913 | 131904
7 | 29:18.55 | 2:51.55 | 131905 | 144784
8 | 32:10.35 | 9:31.50 | 144785 | 187659
9 | 41:42.10 | 6:37.60 | 187660 | 217494
10 | 48:19.70 | 1:25.38 | 217495 | 223907
Range status and errors
Selected range
Filename D:\Torrent Downloads\Music\John Surman - A biography of the Rev Absalom Dawe\John Surman - A biography of the Rev Absalom Dawe.wav
Peak level 89.6 %
Range quality 100.0 %
Test CRC 0A6CD0C5
Copy CRC 0A6CD0C5
Copy OK
No errors occurred
AccurateRip summary
Track 1 cannot be verified as accurate (confidence 2) [A270385C], AccurateRip returned [CCB0F8E0]
Track 2 cannot be verified as accurate (confidence 2) [5FF880C2], AccurateRip returned [F265A811]
Track 3 cannot be verified as accurate (confidence 2) [C41D8188], AccurateRip returned [0201C0D4]
Track 4 cannot be verified as accurate (confidence 2) [9CCD3B7D], AccurateRip returned [E648E04A]
Track 5 cannot be verified as accurate (confidence 2) [E5D09524], AccurateRip returned [9301DF44]
Track 6 cannot be verified as accurate (confidence 2) [A111B0A4], AccurateRip returned [CB350105]
Track 7 cannot be verified as accurate (confidence 2) [649DAC26], AccurateRip returned [0A3E8A66]
Track 8 cannot be verified as accurate (confidence 2) [AE89D87B], AccurateRip returned [78094A41]
Track 9 cannot be verified as accurate (confidence 2) [925A535D], AccurateRip returned [E3478F27]
Track 10 cannot be verified as accurate (confidence 2) [A8A7717A], AccurateRip returned [D13FC72D]
No tracks could be verified as accurate
You may have a different pressing from the one(s) in the database
End of status report

If you like the topic, please click share to help develop our site.

To download the file disable ad blocking, and reload the page.

disable adblock How to disable ad blocking?

Download by magnet link 198 MB Download Torrent

Login using:

Similar topics



   
Current time is: 27-May 03:27 :: All times are UTC + 3