Nik Bärtsch's Ronin - "Holon" (2008)
Страна: Switzerland
Жанр: ECM Style Jazz / Post-Minimalism
Год выпуска: 2008
Формат: FLAC (image + .cue)
Битрейт аудио: lossless
Продолжительность: 55:39
Nik Bärtsch piano
Sha bass clarinets, alto saxophon
Björn Meyer bass
Kaspar Rast drums
Andi Pupato percussion
Треклист:
01. Modul 42 [6:28]
02. Modul 41_17 [14:51]
03. Modul 39_8 [8:00]
04. Modul 46 [7:16]
05. Modul 45 [9:41]
06. Modul 44 [9:23]
Recorded July 2007
ECM 2049

EAC Report

Exact Audio Copy V0.99 prebeta 4 from 23. January 2008
EAC extraction logfile from 1. April 2008, 21:06
Nik Bärtsch's Ronin / Holon
Used drive : MATSHITADVD-RAM UJ-840S Adapter: 1 ID: 0
Read mode : Secure
Utilize accurate stream : Yes
Defeat audio cache : Yes
Make use of C2 pointers : No
Read offset correction : 102
Overread into Lead-In and Lead-Out : No
Fill up missing offset samples with silence : Yes
Delete leading and trailing silent blocks : No
Null samples used in CRC calculations : No
Used interface : Installed external ASPI interface
Used output format : User Defined Encoder
Selected bitrate : 1024 kBit/s
Quality : High
Add ID3 tag : No
Command line compressor : C:\Program Files\Exact Audio Copy\FLAC\FLAC.EXE
Additional command line options : -6 -V -T "ARTIST=%a" -T "TITLE=%t" -T "ALBUM=%g" -T "DATE=%y" -T "TRACKNUMBER=%n" -T "GENRE=%m" -T "COMMENT=%e" %s -o %d
TOC of the extracted CD
Track | Start | Length | Start sector | End sector
---------------------------------------------------------
1 | 0:00.00 | 6:27.68 | 0 | 29092
2 | 6:27.68 | 14:51.27 | 29093 | 95944
3 | 21:19.20 | 7:59.58 | 95945 | 131927
4 | 29:19.03 | 7:16.06 | 131928 | 164633
5 | 36:35.09 | 9:41.08 | 164634 | 208216
6 | 46:16.17 | 9:23.05 | 208217 | 250446
Range status and errors
Selected range
Filename F:\u\Nik Bärtsch's Ronin - Holon.wav
Peak level 98.8 %
Range quality 100.0 %
Copy CRC 3782F993
Copy OK
No errors occurred
AccurateRip summary
Track 1 not present in database
Track 2 not present in database
Track 3 not present in database
Track 4 not present in database
Track 5 not present in database
Track 6 not present in database
None of the tracks are present in the AccurateRip database
End of status report

If you like the topic, please click share to help develop our site.

To download the file disable ad blocking, and reload the page.

disable adblock How to disable ad blocking?

Download by magnet link 279 MB Download Torrent

Login using:

Similar topics



   
Current time is: 25-May 18:05 :: All times are UTC + 3