Raoul Björkenheim / William Parker / Hamid Drake - DMG @ The Stone Vol 2: December 26 2006
Жанр: Avant-Garde / Free Improvisation
Год выпуска диска: 2008
Производитель диска: USA
Аудио кодек: FLAC
Тип рипа: image+.cue
Битрейт аудио: lossless
Продолжительность: 1:07:37
Raoul Björkenheim guitar & viola de Gimbri
William Parker bass & shawn
Hamid Drake drums
Lithotone I
1. Part 1
2. Part 2
3. Part 3
4. Part 4
5. Part 5
6. Part 6
7. Lithotone II

Reviews

"The final week of our festival began on Tuesday, December 26th with Raoul Bjorkenheim, William Parker and Hamid Drake, another first time meeting. Raoul is a member of the explosive Scorch Trio, one of the most exciting jazz/rock/noise power trios to emerge from Scandinavia and was once in a great quartet called Krakatau (ECM). Raoul asked that we help put him together with his dream rhythm team: William and Hamid! The gig, well attended, was explosive throughout. Raoul also played his electric viola da gamba, as well as an electric mando/guitar. Raoul looked like a kid who won the lottery and jumped around with glee, overwhelmed to be playing with two other giants who work so well together. As William and Hamid continually whipped up a rhythm storm, Raoul took one furious solo after another. Two incredible sets - the best parts of which are captured on this CD!" - BLG
"Match the premier rhythm team of the era with one of the most exploratory electric guitarists on the international scene and sparks are sure to fly. Raoul Bjorkenheim, William Parker, & Hamid Drake combine for an evening of spontaneous guitar trio heroics on DMG At The Stone, Volume 2. The main piece they construct, 'Lithotone I,' comes right at you, then dances around the room for quite some time before it dissolves. The quasi-ethnic dance of 'Lithotone II' has Parker switching to the double-reed shawm and Bjorkenheim playing a rolling bass part on viola da gimbri (probably the Moroccan lute-like instrument). Marvelously transportive music that goes by in a flash." - Stuart Kremsky, The Journal

EAC Report

Exact Audio Copy V0.99 prebeta 4 from 23. January 2008
EAC extraction logfile from 5. January 2009, 23:20
Raoul Björkenheim / William Parker / Hamid Drake / DMG @ The Stone Vol 2: December 26 2006
Used drive : TSSTcorpCD/DVDW SH-S182M Adapter: 2 ID: 0
Read mode : Secure
Utilize accurate stream : Yes
Defeat audio cache : Yes
Make use of C2 pointers : No
Read offset correction : 6
Overread into Lead-In and Lead-Out : No
Fill up missing offset samples with silence : Yes
Delete leading and trailing silent blocks : No
Null samples used in CRC calculations : Yes
Used interface : Installed external ASPI interface
Used output format : User Defined Encoder
Selected bitrate : 1024 kBit/s
Quality : High
Add ID3 tag : No
Command line compressor : C:\Program Files\Exact Audio Copy\FLAC\FLAC.EXE
Additional command line options : -8 -V -T "ARTIST=%a" -T "TITLE=%t" -T "ALBUM=%g" -T "DATE=%y" -T "TRACKNUMBER=%n" -T "GENRE=%m" -T "COMMENT=%e" %s -o %d
TOC of the extracted CD
Track | Start | Length | Start sector | End sector
---------------------------------------------------------
1 | 0:00.00 | 11:40.32 | 0 | 52531
2 | 11:40.32 | 6:57.45 | 52532 | 83851
3 | 18:38.02 | 8:26.27 | 83852 | 121828
4 | 27:04.29 | 9:07.16 | 121829 | 162869
5 | 36:11.45 | 6:50.10 | 162870 | 193629
6 | 43:01.55 | 11:13.20 | 193630 | 244124
7 | 54:15.00 | 13:22.08 | 244125 | 304282
Range status and errors
Selected range
Filename C:\z\Björkenheim Parker Drake - DMG @ The Stone Vol 2 December 26 2006.wav
Peak level 96.6 %
Range quality 100.0 %
Test CRC D293F674
Copy CRC D293F674
Copy OK
No errors occurred
AccurateRip summary
Track 1 not present in database
Track 2 not present in database
Track 3 not present in database
Track 4 not present in database
Track 5 not present in database
Track 6 not present in database
Track 7 not present in database
None of the tracks are present in the AccurateRip database
End of status report

If you like the topic, please click share to help develop our site.

To download the file disable ad blocking, and reload the page.

disable adblock How to disable ad blocking?

Download by magnet link 422 MB Download Torrent

Login using:

Similar topics



   
Current time is: 19-Jul 13:32 :: All times are UTC + 3