Mario Pavone - Boom
Жанр: Modern Creative
Год выпуска диска: 2004
Производитель диска: USA (Playscape Recordings PSR#J091003)
Аудио кодек: FLAC
Тип рипа: image+.cue
Битрейт аудио: lossless
Продолжительность: 52:09
Mario Pavone bass
Tony Malaby tenor and soprano saxophones
Peter Madsen piano
Matt Wilson drums
1. Julian
2. Not Five Kimono
3. Arkadia
4. Po
5. Bad Birdie
6. Short Yellow
7. Arc
8. Bastos
9. Interior Boom
10. Out and About

AAJ Review

Some artists determinedly eschew all obvious sense of tradition in their music; others use it as a building block to something new. One of the things that differentiate so-called creative music from free jazz is its apparent lack of ties to the American jazz tradition. While free jazz can be as extreme in its exploration, there is always a sense of history. Bassist Mario Pavone knows all about this distinction, having worked on both sides of the fence, but his own career has clearly leaned towards free jazz. He and reed player/occasional collaborator Mark Whitecage both made the decision to pursue jazz as a full-time occupation upon attending John Coltrane's funeral in '67. And, with an eye to what was going on in Chicago, Pavone created the Creative Musician's Improviser's Forum, a Connecticut-based group modeled around the AACM.
While he has been recording albums under his own name since the early '90s, it has been since '00, with four recordings for the Playscape label, that his best recorded work has emerged. Add to that his newest Playscape recording, Boom , a set that finds him working quartet territory with saxophonist Tony Malaby, pianist Peter Madsen and drummer Matt Wilson, all of whom have worked with Pavone over the past couple years.
Boom is filled with clever ideas, both planned and unplanned. "Bad Birdie," the longest track on the album and one of two pieces written by the late Thomas Chapin, emerges from Ornette territory, combining a quirky extended theme with a high intensity free-swing middle section, where Madsen shows off his encyclopaedic knowledge. Likewise Malaby's solo combines the fire and indirectness of pure abandon with a more historical sense of proportion; he's always been comfortable exploring both the "in" and the "out," and on this record Malaby gets to do both. Pavone is as likely to emphasize strong chordal shots as he is to deliver abstrusely melodic linear thoughts.
Pavone's own compositions run the gamut from the ballad-like "Short Yellow," which might be tender if it wasn't ever so slightly skewed, to the more mathematical "Arc," where the piano and bass establish an ostinato that ultimately breaks down into an improvised section where rhythm is maintained, but in a looser sense. "Bastos" is another Ornette-inspired piece that begins with a quickly-dispensed them that is nothing more than a setup for a relaxed swing where Madsen and Malaby share the solo space.
What makes Boom remarkable and, ultimately, strangely appealing, is its combination of a freer sensibility with a rhythmic approach that usually maintains something resembling established time. Wilson's time may be loose, but it is still impeccable. Pavone himself sits on the fence between more overt interplay with the quartet and, at times, ensuring that a solid foundation is there for the soloist. A thrilling combination of the oblique and the clearly-stated, Boom is another fine offering from Pavone, who continues to move the tradition forward with every record.
~ John Kelman, AAJ

EAC Report

Exact Audio Copy V0.99 prebeta 4 from 23. January 2008
EAC extraction logfile from 19. February 2009, 21:33
Mario Pavone / Boom
Used drive : TSSTcorpCD/DVDW SH-S182M Adapter: 2 ID: 0
Read mode : Secure
Utilize accurate stream : Yes
Defeat audio cache : Yes
Make use of C2 pointers : No
Read offset correction : 6
Overread into Lead-In and Lead-Out : No
Fill up missing offset samples with silence : Yes
Delete leading and trailing silent blocks : No
Null samples used in CRC calculations : Yes
Used interface : Installed external ASPI interface
Used output format : User Defined Encoder
Selected bitrate : 1024 kBit/s
Quality : High
Add ID3 tag : No
Command line compressor : C:\Program Files\Exact Audio Copy\FLAC\FLAC.EXE
Additional command line options : -8 -V -T "ARTIST=%a" -T "TITLE=%t" -T "ALBUM=%g" -T "DATE=%y" -T "TRACKNUMBER=%n" -T "GENRE=%m" -T "COMMENT=%e" %s -o %d
TOC of the extracted CD
Track | Start | Length | Start sector | End sector
---------------------------------------------------------
1 | 0:00.00 | 3:40.03 | 0 | 16502
2 | 3:40.03 | 5:56.51 | 16503 | 43253
3 | 9:36.54 | 6:18.01 | 43254 | 71604
4 | 15:54.55 | 0:18.33 | 71605 | 72987
5 | 16:13.13 | 8:43.61 | 72988 | 112273
6 | 24:56.74 | 3:23.15 | 112274 | 127513
7 | 28:20.14 | 6:10.36 | 127514 | 155299
8 | 34:30.50 | 6:16.25 | 155300 | 183524
9 | 40:47.00 | 6:33.23 | 183525 | 213022
10 | 47:20.23 | 4:49.09 | 213023 | 234706
Range status and errors
Selected range
Filename C:\Documents and Settings\Igor\My Documents\My Music\eac\Mario Pavone - Boom.wav
Peak level 100.0 %
Range quality 100.0 %
Test CRC FDCEE8CC
Copy CRC FDCEE8CC
Copy OK
No errors occurred
AccurateRip summary
Track 1 not present in database
Track 2 not present in database
Track 3 not present in database
Track 4 not present in database
Track 5 not present in database
Track 6 not present in database
Track 7 not present in database
Track 8 not present in database
Track 9 not present in database
Track 10 not present in database
None of the tracks are present in the AccurateRip database
End of status report

If you like the topic, please click share to help develop our site.

To download the file disable ad blocking, and reload the page.

disable adblock How to disable ad blocking?

Download by magnet link 301 MB Download Torrent

Login using:

Similar topics



   
Current time is: 21-Jul 16:55 :: All times are UTC + 3