John Carter - Bobby Bradford Quartet
Seeking

-
Жанр: Avant-Garde Jazz, Post-Bop
Год выпуска диска: 2006
Производитель диска: Switzerland
Аудио кодек: FLAC
Тип рипа: tracks+.cue
Битрейт аудио: lossless
Продолжительность: 46:57
John Carter - alto & tenor saxophones, clarinet & flute
Bobby Bradford - trumpet
Tom Williamson - double bass
Bruz Freeman - drums
1. In The Vineyard - 10:30
2. Karen On Monday - 6:50
3. Sticks And Stones - 6:17
4. The Village Dancers - 8:50
5. Seeking - 6:31
6. Song For The Unsung - 7:57
All compositions by John Carter, except (6) by Bobby Bradford.
Recorded January 16th, 1969 in Los Angeles by J.W.Hardy & Pete Welding.
New CD master May 2006 by Peter Pfister.
Produced by J.W.Hardy & Pete Welding.
CD release produced by Werner X. Uehlinger.
2006, 2nd edition
Hat Hut Records
hatOLOGY 620

EAC extraction logfile from 4. March 2009, 20:33

Exact Audio Copy V0.99 prebeta 4 from 23. January 2008
EAC extraction logfile from 4. March 2009, 20:33
John Carter & Bobby Bradford Quartet / Seeking
Used drive : PLEXTOR DVDR PX-760A Adapter: 0 ID: 0
Read mode : Secure
Utilize accurate stream : Yes
Defeat audio cache : Yes
Make use of C2 pointers : No
Read offset correction : 30
Overread into Lead-In and Lead-Out : Yes
Fill up missing offset samples with silence : Yes
Delete leading and trailing silent blocks : No
Null samples used in CRC calculations : Yes
Used interface : Native Win32 interface for Win NT & 2000
Gap handling : Appended to previous track
Used output format : User Defined Encoder
Selected bitrate : 128 kBit/s
Quality : High
Add ID3 tag : No
Command line compressor : C:\Program Files\FLAC\flac.exe
Additional command line options : -8 -V -T "ARTIST=%a" -T "TITLE=%t" -T "ALBUM=%g" -T "DATE=%y" -T "TRACKNUMBER=%n" -T "GENRE=%m" -T "COMMENT=EAC FLAC -8" %s
TOC of the extracted CD
Track | Start | Length | Start sector | End sector
---------------------------------------------------------
1 | 0:00.00 | 10:30.01 | 0 | 47250
2 | 10:30.01 | 6:50.68 | 47251 | 78068
3 | 17:20.69 | 6:17.00 | 78069 | 106343
4 | 23:37.69 | 8:50.04 | 106344 | 146097
5 | 32:27.73 | 6:31.70 | 146098 | 175492
6 | 38:59.68 | 7:57.10 | 175493 | 211277
Track 1
Filename H:\John Carter & Bobby Bradford Quartet - Seeking (2006) [FLAC]\01 - In The Vineyard.wav
Pre-gap length 0:00:02.00
Peak level 99.0 %
Track quality 100.0 %
Test CRC 27DDC0EA
Copy CRC 27DDC0EA
Track not present in AccurateRip database
Copy OK
Track 2
Filename H:\John Carter & Bobby Bradford Quartet - Seeking (2006) [FLAC]\02 - Karen On Monday.wav
Peak level 77.6 %
Track quality 100.0 %
Test CRC FCF2E493
Copy CRC FCF2E493
Track not present in AccurateRip database
Copy OK
Track 3
Filename H:\John Carter & Bobby Bradford Quartet - Seeking (2006) [FLAC]\03 - Sticks And Stones.wav
Peak level 99.0 %
Track quality 100.0 %
Test CRC 593A1A47
Copy CRC 593A1A47
Track not present in AccurateRip database
Copy OK
Track 4
Filename H:\John Carter & Bobby Bradford Quartet - Seeking (2006) [FLAC]\04 - The Village Dancers.wav
Peak level 99.0 %
Track quality 100.0 %
Test CRC 37E96F6A
Copy CRC 37E96F6A
Track not present in AccurateRip database
Copy OK
Track 5
Filename H:\John Carter & Bobby Bradford Quartet - Seeking (2006) [FLAC]\05 - Seeking.wav
Peak level 93.2 %
Track quality 100.0 %
Test CRC 8C823298
Copy CRC 8C823298
Track not present in AccurateRip database
Copy OK
Track 6
Filename H:\John Carter & Bobby Bradford Quartet - Seeking (2006) [FLAC]\06 - Song For The Unsung.wav
Peak level 99.0 %
Track quality 100.0 %
Test CRC 2AFB6A8E
Copy CRC 2AFB6A8E
Track not present in AccurateRip database
Copy OK
None of the tracks are present in the AccurateRip database
No errors occurred
End of status report
Собственный рип с оригинального издания.
В комплекте полный набор сканов PNG/300dpi.

If you like the topic, please click share to help develop our site.

To download the file disable ad blocking, and reload the page.

disable adblock How to disable ad blocking?

Download by magnet link 277 MB Download Torrent

Login using:

Similar topics



   
Current time is: 27-May 02:00 :: All times are UTC + 3