Tim Berne and the Copenhagen Art Ensemble with Herb Robertson and Marc Ducret - Open, Coma
Жанр: Modern Creative / Avant-Garde
Год выпуска диска: 2001
Производитель диска: USA (Screwgun Records)
Аудио кодек: FLAC
Тип рипа: image+.cue
Битрейт аудио: lossless
Продолжительность: 2:28:03
Tim Berne alto saxophone
Lotte Anker soprano and tenor saxophones
Thomas Agergaard tenor saxophone, flute
Peter Fuglsang clarinet, bass clarinet
Herb Robertson trumpet
Lars Vissing trumpet
Kasper Tranberg cornet
Mads Hyhne trombone
Klaus Löhrer bass trombone, tuba
Thomas Clausen piano, fender rhodes
Marc Ducret guitar
Nils Bosse Davidsen bass
Anders Mogensen drums
Ture Larsen conductor
Disc 1
1. Open, Coma
2. Eye Contact

Disc 2

1. The Legend of P-1
2. Impacted Wisdom

EAC Report (Disc 1)

Exact Audio Copy V0.99 prebeta 4 from 23. January 2008
EAC extraction logfile from 13. December 2008, 18:37
Tim Berne / Open, Coma (Disc 1)
Used drive : TSSTcorpCD/DVDW SH-S182M Adapter: 2 ID: 1
Read mode : Secure
Utilize accurate stream : Yes
Defeat audio cache : Yes
Make use of C2 pointers : No
Read offset correction : 6
Overread into Lead-In and Lead-Out : No
Fill up missing offset samples with silence : Yes
Delete leading and trailing silent blocks : No
Null samples used in CRC calculations : Yes
Used interface : Installed external ASPI interface
Used output format : User Defined Encoder
Selected bitrate : 1024 kBit/s
Quality : High
Add ID3 tag : No
Command line compressor : C:\Program Files\Exact Audio Copy\FLAC\FLAC.EXE
Additional command line options : -6 -V -T "ARTIST=%a" -T "TITLE=%t" -T "ALBUM=%g" -T "DATE=%y" -T "TRACKNUMBER=%n" -T "GENRE=%m" -T "COMMENT=%e" %s -o %d
TOC of the extracted CD
Track | Start | Length | Start sector | End sector
---------------------------------------------------------
1 | 0:00.00 | 27:47.31 | 0 | 125055
2 | 27:47.31 | 45:57.07 | 125056 | 331837
Range status and errors
Selected range
Filename C:\z\Tim Berne - Open, Coma (Disc 1).wav
Peak level 92.2 %
Range quality 100.0 %
Copy CRC D04E5CEE
Copy OK
No errors occurred
AccurateRip summary
Track 1 not present in database
Track 2 not present in database
None of the tracks are present in the AccurateRip database
End of status report

EAC Report (Disc 2)

Exact Audio Copy V0.99 prebeta 4 from 23. January 2008
EAC extraction logfile from 13. December 2008, 19:15
Tim Berne / Open, Coma (Disc 2)
Used drive : TSSTcorpCD/DVDW SH-S182M Adapter: 2 ID: 1
Read mode : Secure
Utilize accurate stream : Yes
Defeat audio cache : Yes
Make use of C2 pointers : No
Read offset correction : 6
Overread into Lead-In and Lead-Out : No
Fill up missing offset samples with silence : Yes
Delete leading and trailing silent blocks : No
Null samples used in CRC calculations : Yes
Used interface : Installed external ASPI interface
Used output format : User Defined Encoder
Selected bitrate : 1024 kBit/s
Quality : High
Add ID3 tag : No
Command line compressor : C:\Program Files\Exact Audio Copy\FLAC\FLAC.EXE
Additional command line options : -6 -V -T "ARTIST=%a" -T "TITLE=%t" -T "ALBUM=%g" -T "DATE=%y" -T "TRACKNUMBER=%n" -T "GENRE=%m" -T "COMMENT=%e" %s -o %d
TOC of the extracted CD
Track | Start | Length | Start sector | End sector
---------------------------------------------------------
1 | 0:00.00 | 32:48.17 | 0 | 147616
2 | 32:48.17 | 41:31.18 | 147617 | 334459
Range status and errors
Selected range
Filename C:\z\Tim Berne - Open, Coma (Disc 2).wav
Peak level 92.2 %
Range quality 99.9 %
Copy CRC 439BC3FA
Copy OK
No errors occurred
AccurateRip summary
Track 1 not present in database
Track 2 not present in database
None of the tracks are present in the AccurateRip database
End of status report

If you like the topic, please click share to help develop our site.

To download the file disable ad blocking, and reload the page.

disable adblock How to disable ad blocking?

Download by magnet link 816 MB Download Torrent

Login using:

Similar topics



   
Current time is: 27-May 02:19 :: All times are UTC + 3