Atomic / School Days - Nuclear Assembly Hall
Жанр: Modern Free / Avant-Garde
Год выпуска диска: 2004
Производитель диска: USA (Okkadisk)
Аудио кодек: FLAC
Тип рипа: image+.cue
Битрейт аудио: lossless
Продолжительность: 1:33:12
Magnus Broo trumpet
Jeb Bishop trombone
Fredrik Ljungkvist reeds
Ken Vandermark reeds
Håvard Wiik piano
Kjell Nordeson vibraphone
Ingebrigt Håker Flaten double bass
Paal Nilssen-Love drums & percussion

Disc 1

1. W Meets A
2. Transparent Taylor
3. Green Wood
4. Ink Worm
5. Kerosene
Disc 2
1. Conjugations
2. Dogdays
3. Light Compulsion
4. Bulletin (for Weegee)

EAC Report (Disc 1)

Exact Audio Copy V0.99 prebeta 4 from 23. January 2008
EAC extraction logfile from 26. February 2009, 21:28
Atomic / School Days / Nuclear Assembly Hall (Disc 1)
Used drive : TSSTcorpCD/DVDW SH-S182M Adapter: 2 ID: 1
Read mode : Secure
Utilize accurate stream : Yes
Defeat audio cache : Yes
Make use of C2 pointers : No
Read offset correction : 6
Overread into Lead-In and Lead-Out : No
Fill up missing offset samples with silence : Yes
Delete leading and trailing silent blocks : No
Null samples used in CRC calculations : Yes
Used interface : Installed external ASPI interface
Used output format : User Defined Encoder
Selected bitrate : 1024 kBit/s
Quality : High
Add ID3 tag : No
Command line compressor : C:\Program Files\Exact Audio Copy\FLAC\FLAC.EXE
Additional command line options : -8 -V -T "ARTIST=%a" -T "TITLE=%t" -T "ALBUM=%g" -T "DATE=%y" -T "TRACKNUMBER=%n" -T "GENRE=%m" -T "COMMENT=%e" %s -o %d
TOC of the extracted CD
Track | Start | Length | Start sector | End sector
---------------------------------------------------------
1 | 0:00.00 | 6:50.24 | 0 | 30773
2 | 6:50.24 | 6:50.01 | 30774 | 61524
3 | 13:40.25 | 7:48.74 | 61525 | 96698
4 | 21:29.24 | 8:47.01 | 96699 | 136224
5 | 30:16.25 | 10:40.40 | 136225 | 184264
Range status and errors
Selected range
Filename C:\Documents and Settings\Igor\My Documents\My Music\eac\Atomic School Days - Nuclear Assembly Hall (Disc 1).wav
Peak level 100.0 %
Range quality 100.0 %
Test CRC 8AF432EB
Copy CRC 8AF432EB
Copy OK
No errors occurred
AccurateRip summary
Track 1 not present in database
Track 2 not present in database
Track 3 not present in database
Track 4 not present in database
Track 5 not present in database
None of the tracks are present in the AccurateRip database
End of status report

EAC Report (Disc 2)

Exact Audio Copy V0.99 prebeta 4 from 23. January 2008
EAC extraction logfile from 26. February 2009, 22:28
Atomic / School Days / Nuclear Assembly Hall (Disc 2)
Used drive : TSSTcorpCD/DVDW SH-S182M Adapter: 2 ID: 1
Read mode : Secure
Utilize accurate stream : Yes
Defeat audio cache : Yes
Make use of C2 pointers : No
Read offset correction : 6
Overread into Lead-In and Lead-Out : No
Fill up missing offset samples with silence : Yes
Delete leading and trailing silent blocks : No
Null samples used in CRC calculations : Yes
Used interface : Installed external ASPI interface
Used output format : User Defined Encoder
Selected bitrate : 1024 kBit/s
Quality : High
Add ID3 tag : No
Command line compressor : C:\Program Files\Exact Audio Copy\FLAC\FLAC.EXE
Additional command line options : -8 -V -T "ARTIST=%a" -T "TITLE=%t" -T "ALBUM=%g" -T "DATE=%y" -T "TRACKNUMBER=%n" -T "GENRE=%m" -T "COMMENT=%e" %s -o %d
TOC of the extracted CD
Track | Start | Length | Start sector | End sector
---------------------------------------------------------
1 | 0:00.00 | 15:20.68 | 0 | 69067
2 | 15:20.68 | 10:11.40 | 69068 | 114932
3 | 25:32.33 | 7:26.38 | 114933 | 148420
4 | 32:58.71 | 19:17.63 | 148421 | 235258
Range status and errors
Selected range
Filename C:\Documents and Settings\Igor\My Documents\My Music\eac\Atomic School Days - Nuclear Assembly Hall (Disc 2).wav
Peak level 100.0 %
Range quality 100.0 %
Test CRC 3D3E132C
Copy CRC 3D3E132C
Copy OK
No errors occurred
AccurateRip summary
Track 1 not present in database
Track 2 not present in database
Track 3 not present in database
Track 4 not present in database
None of the tracks are present in the AccurateRip database
End of status report

If you like the topic, please click share to help develop our site.

To download the file disable ad blocking, and reload the page.

disable adblock How to disable ad blocking?

Download by magnet link 557 MB Download Torrent

Login using:

Similar topics



   
Current time is: 19-Jul 13:40 :: All times are UTC + 3