Vincent Courtois / Sylvie Courvoisier / Ellery Eskelin - As Soon As Possible
Жанр: Avant-Garde / Free Jazz
Год выпуска диска: 2008
Производитель диска: Italy (CAM Jazz)
Аудио кодек: FLAC
Тип рипа: image+.cue
Битрейт аудио: lossless
Продолжительность: 57:18
Vincent Courtois cello, electronics
Sylvie Courvoisier piano and prepared piano
Ellery Eskelin tenor saxophone
1. Sotto Voice
2. Obvious Obtuse
3. As Soon As Possible
4. Nocturne
5. Mesure d'ailleurs
6. Lexington Market
7. All'improviste
8. La Fontaine de Mars
9. Extended
10. Sequence
11. Antiphons
Recorded in New York on 17, 18 September 2007 at Sear Sound Studio.

EAC Report

Exact Audio Copy V0.99 prebeta 4 from 23. January 2008
EAC extraction logfile from 28. February 2009, 23:43
Vincent Courtois / Sylvie Courvoisier / Ellery Eskelin / As Soon As Possible
Used drive : TSSTcorpCD/DVDW SH-S182M Adapter: 2 ID: 0
Read mode : Secure
Utilize accurate stream : Yes
Defeat audio cache : Yes
Make use of C2 pointers : No
Read offset correction : 6
Overread into Lead-In and Lead-Out : No
Fill up missing offset samples with silence : Yes
Delete leading and trailing silent blocks : No
Null samples used in CRC calculations : Yes
Used interface : Installed external ASPI interface
Used output format : User Defined Encoder
Selected bitrate : 1024 kBit/s
Quality : High
Add ID3 tag : No
Command line compressor : C:\Program Files\Exact Audio Copy\FLAC\FLAC.EXE
Additional command line options : -8 -V -T "ARTIST=%a" -T "TITLE=%t" -T "ALBUM=%g" -T "DATE=%y" -T "TRACKNUMBER=%n" -T "GENRE=%m" -T "COMMENT=%e" %s -o %d
TOC of the extracted CD
Track | Start | Length | Start sector | End sector
---------------------------------------------------------
1 | 0:00.00 | 7:17.65 | 0 | 32839
2 | 7:17.65 | 8:23.59 | 32840 | 70623
3 | 15:41.49 | 4:51.43 | 70624 | 92491
4 | 20:33.17 | 6:48.49 | 92492 | 123140
5 | 27:21.66 | 8:24.61 | 123141 | 161001
6 | 35:46.52 | 3:30.71 | 161002 | 176822
7 | 39:17.48 | 4:31.36 | 176823 | 197183
8 | 43:49.09 | 5:09.70 | 197184 | 220428
9 | 48:59.04 | 2:16.66 | 220429 | 230694
10 | 51:15.70 | 2:49.67 | 230695 | 243436
11 | 54:05.62 | 3:13.06 | 243437 | 257917
Range status and errors
Selected range
Filename C:\Documents and Settings\Igor\My Documents\My Music\eac\Courtois Courvoisier Eskelin - As Soon As Possible.wav
Peak level 97.3 %
Range quality 100.0 %
Test CRC E18D9CE0
Copy CRC E18D9CE0
Copy OK
No errors occurred
AccurateRip summary
Track 1 not present in database
Track 2 not present in database
Track 3 not present in database
Track 4 not present in database
Track 5 not present in database
Track 6 not present in database
Track 7 not present in database
Track 8 not present in database
Track 9 not present in database
Track 10 not present in database
Track 11 not present in database
None of the tracks are present in the AccurateRip database
End of status report

If you like the topic, please click share to help develop our site.

To download the file disable ad blocking, and reload the page.

disable adblock How to disable ad blocking?

Download by magnet link 216 MB Download Torrent

Login using:

Similar topics



   
Current time is: 27-May 03:01 :: All times are UTC + 3