Ingebrigt Håker Flaten - Quintet
Жанр: Avant-Garde / Free Jazz / Jazzland
Год выпуска диска: 2006
Производитель диска: Norway (Jazzland)
Аудио кодек: FLAC
Тип рипа: image+.cue
Битрейт аудио: lossless
Продолжительность: 44:37
Ingebrigt Håker Flaten bass
Anders Hana guitar
Ola Kvernberg violin, mandolin
Klaus Ellerhusen Holm baritone and alto saxophones, clarinet
Fredrik Rundqvist drums
1. Maxwell's Silver Demon
2. Playing
3. Seemingly
4. Ceta
5. Olja og Gass
6. Zardoz
7. It's a Desperate Situation

EAC Report

Exact Audio Copy V0.99 prebeta 4 from 23. January 2008
EAC extraction logfile from 24. October 2008, 21:20
Ingebrigt Håker Flaten / Quintet
Used drive : TSSTcorpCD/DVDW SH-S182M Adapter: 2 ID: 0
Read mode : Secure
Utilize accurate stream : Yes
Defeat audio cache : Yes
Make use of C2 pointers : No
Read offset correction : 6
Overread into Lead-In and Lead-Out : No
Fill up missing offset samples with silence : Yes
Delete leading and trailing silent blocks : No
Null samples used in CRC calculations : Yes
Used interface : Installed external ASPI interface
Used output format : User Defined Encoder
Selected bitrate : 1024 kBit/s
Quality : High
Add ID3 tag : No
Command line compressor : C:\Program Files\Exact Audio Copy\FLAC\FLAC.EXE
Additional command line options : -6 -V -T "ARTIST=%a" -T "TITLE=%t" -T "ALBUM=%g" -T "DATE=%y" -T "TRACKNUMBER=%n" -T "GENRE=%m" -T "COMMENT=%e" %s -o %d
TOC of the extracted CD
Track | Start | Length | Start sector | End sector
---------------------------------------------------------
1 | 0:00.00 | 8:49.66 | 0 | 39740
2 | 8:49.66 | 7:25.13 | 39741 | 73128
3 | 16:15.04 | 7:49.20 | 73129 | 108323
4 | 24:04.24 | 8:21.54 | 108324 | 145952
5 | 32:26.03 | 5:29.31 | 145953 | 170658
6 | 37:55.34 | 2:52.63 | 170659 | 183621
7 | 40:48.22 | 3:48.23 | 183622 | 200744
Range status and errors
Selected range
Filename C:\z\Ingebrigt Håker Flaten - Quintet.wav
Peak level 97.9 %
Range quality 100.0 %
Copy CRC 26AC322F
Copy OK
No errors occurred
AccurateRip summary
Track 1 not present in database
Track 2 not present in database
Track 3 not present in database
Track 4 not present in database
Track 5 not present in database
Track 6 not present in database
Track 7 not present in database
None of the tracks are present in the AccurateRip database
End of status report

If you like the topic, please click share to help develop our site.

To download the file disable ad blocking, and reload the page.

disable adblock How to disable ad blocking?

Download by magnet link 258 MB Download Torrent

Login using:

Similar topics



   
Current time is: 19-Jul 12:58 :: All times are UTC + 3