James Emery - Luminous Cycle
Жанр: Modern Creative
Год выпуска диска: 2000
Производитель диска: Germany (Between the Lines BTL 015)
Аудио кодек: FLAC
Тип рипа: image+.cue
Битрейт аудио: lossless
Продолжительность: 1:12:50
James Emery acoustic guitar
Marty Ehrlich alto saxophone (2,3,7), soprano saxophone (8), clarinet (1L,6), flute (5)
Chris Speed tenor saxophone (2,6,7), clarinet (1R,3,5,6,8)
Drew Gress bass
Gerry Hemingway drums, glockenspiel
Kevin Norton marimba, vices, tympani, bowed tam-tam
1. Luminous Cycles
2. One Red Thread
3. Beyond Words
4. En Rapport
5. Exit To Nowhere
6. Across The Winter
7. Cardinal Points
8. Violet in the Blue

EAC Report

Exact Audio Copy V0.99 prebeta 4 from 23. January 2008
EAC extraction logfile from 28. February 2009, 22:38
James Emery / Luminous Cycle
Used drive : MATSHITADVD-RAM UJ-840S Adapter: 1 ID: 0
Read mode : Secure
Utilize accurate stream : Yes
Defeat audio cache : Yes
Make use of C2 pointers : No
Read offset correction : 102
Overread into Lead-In and Lead-Out : No
Fill up missing offset samples with silence : Yes
Delete leading and trailing silent blocks : No
Null samples used in CRC calculations : Yes
Used interface : Installed external ASPI interface
Used output format : User Defined Encoder
Selected bitrate : 1024 kBit/s
Quality : High
Add ID3 tag : No
Command line compressor : C:\Program Files\Exact Audio Copy\FLAC\FLAC.EXE
Additional command line options : -8 -V -T "ARTIST=%a" -T "TITLE=%t" -T "ALBUM=%g" -T "DATE=%y" -T "TRACKNUMBER=%n" -T "GENRE=%m" -T "COMMENT=%e" %s -o %d
TOC of the extracted CD
Track | Start | Length | Start sector | End sector
---------------------------------------------------------
1 | 0:00.00 | 9:53.34 | 0 | 44508
2 | 9:53.34 | 9:09.39 | 44509 | 85722
3 | 19:02.73 | 9:48.37 | 85723 | 129859
4 | 28:51.35 | 7:40.74 | 129860 | 164433
5 | 36:32.34 | 11:59.68 | 164434 | 218426
6 | 48:32.27 | 8:19.42 | 218427 | 255893
7 | 56:51.69 | 8:16.02 | 255894 | 293095
8 | 65:07.71 | 7:42.19 | 293096 | 327764
Range status and errors
Selected range
Filename C:\Documents and Settings\Igor\My Documents\My Music\eac\James Emery - Luminous Cycle.wav
Peak level 100.0 %
Range quality 99.9 %
Test CRC 315D9D76
Copy CRC 315D9D76
Copy OK
No errors occurred
AccurateRip summary
Track 1 accurately ripped (confidence 1) [473EB251]
Track 2 accurately ripped (confidence 1) [C1636179]
Track 3 accurately ripped (confidence 1) [52A6D55D]
Track 4 accurately ripped (confidence 1) [8CF4F648]
Track 5 accurately ripped (confidence 1) [2B734C13]
Track 6 accurately ripped (confidence 1) [6DAA085E]
Track 7 accurately ripped (confidence 1) [AAD53356]
Track 8 accurately ripped (confidence 1) [29FD0FF7]
All tracks accurately ripped
End of status report

If you like the topic, please click share to help develop our site.

To download the file disable ad blocking, and reload the page.

disable adblock How to disable ad blocking?

Download by magnet link 370 MB Download Torrent

Login using:

Similar topics



   
Current time is: 27-May 02:23 :: All times are UTC + 3