Al Di Meola - Electric Anthology Жанр: Jazz, Fusion
Носитель: CD
Страна-производитель диска (релиза): USA
Год издания: 1995
Издатель (лейбл): Sony Music Intertainment Inc.
Номер по каталогу: A 26405
Страна исполнителя (группы): USA
Аудиокодек: FLAC (*.flac)
Тип рипа: image+.cue
Битрейт аудио: lossless
Продолжительность: 70:28
Источник (релизер): DrStandBy
Наличие сканов в содержимом раздачи: да
Треклист:
01. Land Of The Midnight Sun
02. Midnight Tango
03. Elegant Gypsy Suite
04. Dark Eye Tango
05. Al Di's Dream Theme
06. Cruisin'
07. Black Cat Shuffle
08. Ritmo De La Noche
09. Sequencer (Remix)
10. Cachaca
11. Advantage (Live Version)
12. Cruisin' (Live Version)

Лог создания рипа

Exact Audio Copy V1.1 from 23. June 2015
EAC extraction logfile from 6. June 2017, 22:08
Al Di Meola / Electric Anthology
Used drive : TEAC BD-C26SS-A Adapter: 1 ID: 0
Read mode : Secure
Utilize accurate stream : Yes
Defeat audio cache : Yes
Make use of C2 pointers : No
Read offset correction : 6
Overread into Lead-In and Lead-Out : No
Fill up missing offset samples with silence : Yes
Delete leading and trailing silent blocks : No
Null samples used in CRC calculations : Yes
Used interface : Native Win32 interface for Win NT & 2000
Used output format : User Defined Encoder
Selected bitrate : 896 kBit/s
Quality : High
Add ID3 tag : No
Command line compressor : C:\Program Files (x86)\Exact Audio Copy\Flac\flac.exe
Additional command line options : -8 -V -T "ARTIST=%artist%" -T "ALBUM=%albumtitle%" -T "DATE=%year%" -T "GENRE=%genre%" -T "COMMENT=ripped for Proper" %source%
TOC of the extracted CD
Track | Start | Length | Start sector | End sector
---------------------------------------------------------
1 | 0:00.00 | 9:12.05 | 0 | 41404
2 | 9:12.05 | 6:17.45 | 41405 | 69724
3 | 15:29.50 | 9:16.15 | 69725 | 111439
4 | 24:45.65 | 5:23.37 | 111440 | 135701
5 | 30:09.27 | 6:48.65 | 135702 | 166366
6 | 36:58.17 | 4:16.13 | 166367 | 185579
7 | 41:14.30 | 3:01.04 | 185580 | 199158
8 | 44:15.34 | 4:17.56 | 199159 | 218489
9 | 48:33.15 | 6:10.12 | 218490 | 246251
10 | 54:43.27 | 5:36.03 | 246252 | 271454
11 | 60:19.30 | 4:45.57 | 271455 | 292886
12 | 65:05.12 | 5:23.35 | 292887 | 317146
Range status and errors
Selected range
Filename E:\Al Di Meola - Electric Anthology.wav
Peak level 100.0 %
Extraction speed 5.2 X
Range quality 100.0 %
Test CRC DDDB1655
Copy CRC DDDB1655
Copy OK
No errors occurred
AccurateRip summary
Track 1 cannot be verified as accurate (confidence 3) [4D36FE12], AccurateRip returned [161500D9] (AR v2)
Track 2 cannot be verified as accurate (confidence 3) [ACB32761], AccurateRip returned [D90A31A9] (AR v2)
Track 3 cannot be verified as accurate (confidence 3) [D43F76D1], AccurateRip returned [37259862] (AR v2)
Track 4 cannot be verified as accurate (confidence 3) [77C5F989], AccurateRip returned [0ACA6CEF] (AR v2)
Track 5 cannot be verified as accurate (confidence 3) [64835B43], AccurateRip returned [7A797551] (AR v2)
Track 6 cannot be verified as accurate (confidence 3) [E3166B80], AccurateRip returned [B53006B2] (AR v2)
Track 7 cannot be verified as accurate (confidence 3) [0E37772B], AccurateRip returned [C6768464] (AR v2)
Track 8 cannot be verified as accurate (confidence 3) [E3F6804B], AccurateRip returned [1A3A1B57] (AR v2)
Track 9 cannot be verified as accurate (confidence 3) [75F2BF6B], AccurateRip returned [82D4FE0A] (AR v2)
Track 10 cannot be verified as accurate (confidence 3) [3E3A5333], AccurateRip returned [D2C8CF44] (AR v2)
Track 11 cannot be verified as accurate (confidence 3) [575D8BE2], AccurateRip returned [034EFCDE] (AR v2)
Track 12 cannot be verified as accurate (confidence 3) [5F7B0EE5], AccurateRip returned [BDB1910E] (AR v2)
No tracks could be verified as accurate
You may have a different pressing from the one(s) in the database
End of status report
---- CUETools DB Plugin V2.1.6
[CTDB TOCID: RK.peBRS3aOm2cTp1ID9_huwvYw-] found
Submit result: already submitted
Track | CTDB Status
1 | (3/3) Accurately ripped
2 | (3/3) Accurately ripped
3 | (3/3) Accurately ripped
4 | (3/3) Accurately ripped
5 | (3/3) Accurately ripped
6 | (3/3) Accurately ripped
7 | (3/3) Accurately ripped
8 | (3/3) Accurately ripped
9 | (3/3) Accurately ripped
10 | (3/3) Accurately ripped
11 | (3/3) Accurately ripped
12 | (3/3) Accurately ripped
==== Log checksum 97DACDAFB4AFB6A5DA769B465273903591B095634459199EDEF9BA90E0333CE3 ====

Содержание индексной карты (.CUE)

REM GENRE Fusion
REM DATE 1995
REM DISCID AB10840C
REM COMMENT "ExactAudioCopy v1.1"
PERFORMER "Al Di Meola"
TITLE "Electric Anthology"
FILE "Al Di Meola - Electric Anthology.flac" WAVE
TRACK 01 AUDIO
TITLE "Land of the Midnight Sun"
PERFORMER "Al Di Meola"
INDEX 01 00:00:00
TRACK 02 AUDIO
TITLE "Midnight Tango"
PERFORMER "Al Di Meola"
INDEX 00 09:10:22
INDEX 01 09:12:05
TRACK 03 AUDIO
TITLE "Elegant Gypsy Suite"
PERFORMER "Al Di Meola"
INDEX 00 15:27:67
INDEX 01 15:29:50
TRACK 04 AUDIO
TITLE "Dark Eye Tango"
PERFORMER "Al Di Meola"
INDEX 00 24:44:07
INDEX 01 24:45:65
TRACK 05 AUDIO
TITLE "Al Di's Dream Theme"
PERFORMER "Al Di Meola"
INDEX 00 30:07:45
INDEX 01 30:09:27
TRACK 06 AUDIO
TITLE "Cruisin'"
PERFORMER "Al Di Meola"
INDEX 00 36:56:34
INDEX 01 36:58:17
TRACK 07 AUDIO
TITLE "Black Cat Shuffle"
PERFORMER "Al Di Meola"
INDEX 00 41:12:47
INDEX 01 41:14:30
TRACK 08 AUDIO
TITLE "Ritmo De La Noche"
PERFORMER "Al Di Meola"
INDEX 00 44:13:52
INDEX 01 44:15:34
TRACK 09 AUDIO
TITLE "Sequencer (Remix)"
PERFORMER "Al Di Meola"
INDEX 00 48:31:32
INDEX 01 48:33:15
TRACK 10 AUDIO
TITLE "Cachaca"
PERFORMER "Al Di Meola"
INDEX 00 54:41:45
INDEX 01 54:43:27
TRACK 11 AUDIO
TITLE "Advantage (Live Version)"
PERFORMER "Al Di Meola"
INDEX 00 60:17:47
INDEX 01 60:19:30
TRACK 12 AUDIO
TITLE "Cruisin' (Live Version)"
PERFORMER "Al Di Meola"
INDEX 00 65:03:30
INDEX 01 65:05:12

If you like the topic, please click share to help develop our site.

To download the file disable ad blocking, and reload the page.

disable adblock How to disable ad blocking?

Download by magnet link 513 MB Download Torrent

Login using:

Similar topics



   
Current time is: 25-May 19:03 :: All times are UTC + 3