Harry Allen / Here's to Zoot
Жанр: Mainstream Jazz, Cool
Носитель: CD
Страна-производитель диска (релиза): Japan
Год издания: 2001
Издатель (лейбл): Novus J
Номер по каталогу: BVCJ-648
Страна исполнителя (группы): USA
Аудиокодек: FLAC (*.flac)
Тип рипа: image+.cue
Битрейт аудио: lossless
Продолжительность: 00:56:30
Источник (релизер): Собственные рипы
Наличие сканов в содержимом раздачи: да
Треклист:
01 I Cover the Waterfront [5:07]
02 Stars Fell on Alabama [4:27]
03 Spring Is Here [4:48]
04 I Cried for You [4:21]
05 Grooveyard [6:40]
06 I Remember You [6:05]
07 Someone to Watch over Me [5:28]
08 9-20 Special [5:14]
09 The Way You Look Tonight [4:36]
10 All My Tomorrows [4:03]
11 I'll Take Romance [5:41]

Лог создания рипа

Exact Audio Copy V1.3 from 2. September 2016
EAC extraction logfile from 6. June 2017, 20:56
Harry Allen / Here's to Zoot
Used drive : Optiarc DVD RW AD-7243S Adapter: 1 ID: 0
Read mode : Secure
Utilize accurate stream : Yes
Defeat audio cache : Yes
Make use of C2 pointers : No
Read offset correction : 48
Overread into Lead-In and Lead-Out : No
Fill up missing offset samples with silence : Yes
Delete leading and trailing silent blocks : No
Null samples used in CRC calculations : Yes
Used interface : Native Win32 interface for Win NT & 2000
Used output format : User Defined Encoder
Selected bitrate : 112 kBit/s
Quality : High
Add ID3 tag : No
Command line compressor : C:\Program Files (x86)\Exact Audio Copy\Flac\flac.exe
Additional command line options : -T "artist=%artist%" -T "title=%title%" -T "album=%albumtitle%" -T "date=%year%" -T "tracknumber=%tracknr%" -T "genre=%genre%" -5 %source%
TOC of the extracted CD
Track | Start | Length | Start sector | End sector
---------------------------------------------------------
1 | 0:00.37 | 5:07.15 | 37 | 23076
2 | 5:07.52 | 4:27.23 | 23077 | 43124
3 | 9:35.00 | 4:47.55 | 43125 | 64704
4 | 14:22.55 | 4:20.67 | 64705 | 84271
5 | 18:43.47 | 6:40.00 | 84272 | 114271
6 | 25:23.47 | 6:05.03 | 114272 | 141649
7 | 31:28.50 | 5:27.65 | 141650 | 166239
8 | 36:56.40 | 5:13.47 | 166240 | 189761
9 | 42:10.12 | 4:35.63 | 189762 | 210449
10 | 46:46.00 | 4:03.27 | 210450 | 228701
11 | 50:49.27 | 5:41.35 | 228702 | 254311
Range status and errors
Selected range
Filename H:\sax\Новая папка\EAC\Harry Allen - Here's to Zoot\Harry Allen - Here's to Zoot.wav
Peak level 100.0 %
Extraction speed 3.9 X
Range quality 100.0 %
Test CRC AB6E48B4
Copy CRC AB6E48B4
Copy OK
No errors occurred
End of status report
---- CUETools DB Plugin V2.1.6
[CTDB TOCID: dqf4reVra.bgJjDkNDchtYxSMrw-] found
Submit result: dqf4reVra.bgJjDkNDchtYxSMrw- has been confirmed
Track | CTDB Status
1 | (3/3) Accurately ripped
2 | (3/3) Accurately ripped
3 | (3/3) Accurately ripped
4 | (3/3) Accurately ripped
5 | (3/3) Accurately ripped
6 | (3/3) Accurately ripped
7 | (3/3) Accurately ripped
8 | (3/3) Accurately ripped
9 | (3/3) Accurately ripped
10 | (3/3) Accurately ripped
11 | (3/3) Accurately ripped
==== Log checksum 6C6D5F26BC391BFAFD8AF44873E6CA8359F17B25F43D47E6D0A14E8D546622A6 ====

Об альбоме (сборнике)

Dedicated to Zoot Sims, this is a collection of standards - with a rhythm section of guys who worked with and loved Zoot: Dave McKenna, piano, Michael Moore, bass, and Jake Hanna, drums.

Состав

Harry Allen - tenor saxophone
Dave McKenna - piano
Michael Moore - bass
Jake Hanna - drums

If you like the topic, please click share to help develop our site.

To download the file disable ad blocking, and reload the page.

disable adblock How to disable ad blocking?

Download by magnet link 341 MB Download Torrent

Login using:

Similar topics



   
Current time is: 25-May 17:54 :: All times are UTC + 3