Bob Alberti quartet feat. Harry Allen / Everything I Love
Жанр: Mainstream Jazz, Cool
Носитель: CD
Страна-производитель диска (релиза): Hilton Head Island, SC
Год издания: 1998
Издатель (лейбл): Dolphin Recordings
Номер по каталогу: B00000JMIC
Страна исполнителя (группы): USA
Аудиокодек: FLAC (*.flac)
Тип рипа: image+.cue
Битрейт аудио: lossless
Продолжительность: 00:57:33
Источник (релизер): Собственные рипы
Наличие сканов в содержимом раздачи: да
Треклист:
01 It's De-Lovely [3:51]
02 Guess I'll Hang My Tears Out to Dry [7:21]
03 You'd Be So Nice to Come Home To [3:11]
04 Ev'rything I Love [4:17]
05 Drifting [5:59]
06 The Trouble With Hello Is Goodbye [4:00]
07 Speak Low [6:34]
08 Falling in Love With Love [6:24]
09 Sunday [7:13]
10 Nancy (With the Laughing Face) [8:43]

Лог создания рипа

Exact Audio Copy V1.3 from 2. September 2016
EAC extraction logfile from 2. June 2017, 15:52
Bob Alberti / Everything I Love
Used drive : Optiarc DVD RW AD-7243S Adapter: 1 ID: 0
Read mode : Secure
Utilize accurate stream : Yes
Defeat audio cache : Yes
Make use of C2 pointers : No
Read offset correction : 48
Overread into Lead-In and Lead-Out : No
Fill up missing offset samples with silence : Yes
Delete leading and trailing silent blocks : No
Null samples used in CRC calculations : Yes
Used interface : Native Win32 interface for Win NT & 2000
Used output format : User Defined Encoder
Selected bitrate : 112 kBit/s
Quality : High
Add ID3 tag : No
Command line compressor : C:\Program Files (x86)\Exact Audio Copy\Flac\flac.exe
Additional command line options : -T "artist=%artist%" -T "title=%title%" -T "album=%albumtitle%" -T "date=%year%" -T "tracknumber=%tracknr%" -T "genre=%genre%" -5 %source%
TOC of the extracted CD
Track | Start | Length | Start sector | End sector
---------------------------------------------------------
1 | 0:00.00 | 3:51.18 | 0 | 17342
2 | 3:51.18 | 7:21.36 | 17343 | 50453
3 | 11:12.54 | 3:10.40 | 50454 | 64743
4 | 14:23.19 | 4:17.27 | 64744 | 84045
5 | 18:40.46 | 5:59.28 | 84046 | 110998
6 | 24:39.74 | 3:59.74 | 110999 | 128997
7 | 28:39.73 | 6:33.48 | 128998 | 158520
8 | 35:13.46 | 6:23.49 | 158521 | 187294
9 | 41:37.20 | 7:12.61 | 187295 | 219755
10 | 48:50.06 | 8:43.01 | 219756 | 258981
Range status and errors
Selected range
Filename H:\sax\Новая папка\EAC\Bob Alberti - Everything I Love\Bob Alberti - Everything I Love.wav
Peak level 100.0 %
Extraction speed 3.9 X
Range quality 100.0 %
Test CRC 054A583B
Copy CRC 054A583B
Copy OK
No errors occurred
End of status report
---- CUETools DB Plugin V2.1.6
[CTDB TOCID: JEui8ky43Eck07Leo5tkVzQMcHE-] disk not present in database
Submit result: JEui8ky43Eck07Leo5tkVzQMcHE- has been uploaded
==== Log checksum EA091486285CBC0FD1FA8D284851F8131E2DDAF2D7A55FC4F3BBE2A14028042A ====

Об альбоме (сборнике)

AllMusic Review by Scott Yanow
Bob Alberti is a fine mainstream/swing pianist, but the real star of this lesser-known CD is the great tenor saxophonist Harry Allen. Allen, who often sounds a bit like Stan Getz, swings hard on the medium-tempo pieces and adds a great deal of warmth to the ballads. With bassist Frank Duvall and drummer Jonathan Wacker contributing swinging support, the quartet digs into such songs as "It's De-Lovely," "You'd Be So Nice to Come Home To," "Speak Low," and "Sunday." The music lives up to expectations, serving as a fine showcase for Allen and an excellent introduction to the piano playing of Alberti.

Состав

BOB ALBERTI QUARTET FEATURING HARRY ALLEN

If you like the topic, please click share to help develop our site.

To download the file disable ad blocking, and reload the page.

disable adblock How to disable ad blocking?

Download by magnet link 326 MB Download Torrent

Login using:

Similar topics



   
Current time is: 25-May 19:11 :: All times are UTC + 3