Harry Allen / The King
Жанр: Mainstream Jazz, Cool
Носитель: CD
Страна-производитель диска (релиза): Germany
Год издания: 2008
Издатель (лейбл): Nagel-Heyer
Номер по каталогу: B00000I0X8
Страна исполнителя (группы): USA
Аудиокодек: FLAC (*.flac)
Тип рипа: image+.cue
Битрейт аудио: lossless
Продолжительность: 1:19:08
Источник (релизер): Собственные рипы
Наличие сканов в содержимом раздачи: да
Треклист:
01 Deed I Do [9:29]
02 Close Your Eyes [9:51]
03 But Beautiful [5:32]
04 The King [9:41]
05 Did You Call Here Today [10:03]
06 Honeysuckle Rose [5:24]
07 This Time the Dream's on Me [4:56]
08 My Heart Stood Still [8:52]
09 Every Day I Have the Blues [5:08]
10 Limehouse Blues [10:13]

Лог создания рипа

Exact Audio Copy V1.3 from 2. September 2016
EAC extraction logfile from 2. June 2017, 15:17
Harry Allen / King
Used drive : Optiarc DVD RW AD-7243S Adapter: 1 ID: 0
Read mode : Secure
Utilize accurate stream : Yes
Defeat audio cache : Yes
Make use of C2 pointers : No
Read offset correction : 48
Overread into Lead-In and Lead-Out : No
Fill up missing offset samples with silence : Yes
Delete leading and trailing silent blocks : No
Null samples used in CRC calculations : Yes
Used interface : Native Win32 interface for Win NT & 2000
Used output format : User Defined Encoder
Selected bitrate : 112 kBit/s
Quality : High
Add ID3 tag : No
Command line compressor : C:\Program Files (x86)\Exact Audio Copy\Flac\flac.exe
Additional command line options : -T "artist=%artist%" -T "title=%title%" -T "album=%albumtitle%" -T "date=%year%" -T "tracknumber=%tracknr%" -T "genre=%genre%" -5 %source%
TOC of the extracted CD
Track | Start | Length | Start sector | End sector
---------------------------------------------------------
1 | 0:00.32 | 9:29.00 | 32 | 42706
2 | 9:29.32 | 9:50.73 | 42707 | 87029
3 | 19:20.30 | 5:31.50 | 87030 | 111904
4 | 24:52.05 | 9:40.47 | 111905 | 155451
5 | 34:32.52 | 10:02.55 | 155452 | 200656
6 | 44:35.32 | 5:23.48 | 200657 | 224929
7 | 49:59.05 | 4:55.47 | 224930 | 247101
8 | 54:54.52 | 8:52.20 | 247102 | 287021
9 | 63:46.72 | 5:08.10 | 287022 | 310131
10 | 68:55.07 | 10:13.25 | 310132 | 356131
Range status and errors
Selected range
Filename H:\sax\Новая папка\EAC\Harry Allen - King\Harry Allen - King.wav
Peak level 95.5 %
Extraction speed 4.5 X
Range quality 100.0 %
Test CRC F6F4ABAA
Copy CRC F6F4ABAA
Copy OK
No errors occurred
End of status report
---- CUETools DB Plugin V2.1.6
[CTDB TOCID: W8DsnUS77DA64FIsqvZszJGY6RU-] found
Submit result: W8DsnUS77DA64FIsqvZszJGY6RU- has been confirmed
Track | CTDB Status
1 | (1/1) Accurately ripped
2 | (1/1) Accurately ripped
3 | (1/1) Accurately ripped
4 | (1/1) Accurately ripped
5 | (1/1) Accurately ripped
6 | (1/1) Accurately ripped
7 | (1/1) Accurately ripped
8 | (1/1) Accurately ripped
9 | (1/1) Accurately ripped
10 | (1/1) Accurately ripped
==== Log checksum BB7D02CD9210E523C486057639EEF49E1694411039586C3EF6317BD44831744C ====

Состав

The King (feat. John Bunch, Dennis Irwin, Duffy Jackson) [Live] by Harry Allen

If you like the topic, please click share to help develop our site.

To download the file disable ad blocking, and reload the page.

disable adblock How to disable ad blocking?

Download by magnet link 517 MB Download Torrent

Login using:

Similar topics



   
Current time is: 27-May 02:01 :: All times are UTC + 3