Sonny Rollins / On Impulse! (Japan 1st Press)
Жанр: Bop
Носитель: CD
Страна-производитель диска (релиза): Japan
Год издания: 1986 (1965)
Издатель (лейбл): Impulse
Номер по каталогу: 32XD 607
Страна исполнителя (группы): USA
Аудиокодек: FLAC (*.flac)
Тип рипа: image+.cue
Битрейт аудио: lossless
Продолжительность: 34:17
Источник (релизер): собственный рип
Наличие сканов в содержимом раздачи: да
Треклист:
1. "On Green Dolphin Street" (Bronislaw Kaper, Ned Washington) - 7:10
2. "Everything Happens to Me" (Tom Adair, Matt Dennis) - 11:14
3. "Hold 'Em Joe" (Harry Thomas) - 5:30
4. "The Blue Room" (Lorenz Hart, Richard Rodgers) - 3:44
5. "Three Little Words" (Bert Kalmar, Harry Ruby) - 6:56

Лог создания рипа

Exact Audio Copy V1.0 beta 6 from 9. April 2015
Отчёт EAC об извлечении, выполненном 6. июня 2017, 22:34
Sonny Rollins / On Impulse
Дисковод: MATSHITADVD-RAM UJ8B1AS Adapter: 1 ID: 0
Режим чтения : Достоверность
Использование точного потока : Да
Отключение кэша аудио : Да
Использование указателей C2 : Нет
Коррекция смещения при чтении : 6
Способность читать области Lead-in и Lead-out : Нет
Заполнение пропущенных сэмплов тишиной : Да
Удаление блоков с тишиной в начале и конце : Нет
При вычислениях CRC использовались нулевые сэмплы : Да
Интерфейс : Встроенный Win32-интерфейс для Win NT/2000
Выходной формат : Пользовательский кодировщик
Выбранный битрейт : 128 kBit/s
Качество : Высокий
Добавление ID3-тега : Нет
Утилита сжатия : C:\Program Files (x86)\Exact Audio Copy\Flac\flac.exe
Дополнительные параметры : -V -8 -T "Date=%year%" -T "Genre=%genre%" %source%
TOC извлечённого CD
Трек | Старт | Длительность | Начальный сектор | Конечный сектор
---------------------------------------------------------------------
1 | 0:00.00 | 7:07.30 | 0 | 32054
2 | 7:07.30 | 11:14.20 | 32055 | 82624
3 | 18:21.50 | 5:29.30 | 82625 | 107329
4 | 23:51.05 | 3:44.07 | 107330 | 124136
5 | 27:35.12 | 6:56.18 | 124137 | 155354
Характеристики диапазона извлечения и сообщения об ошибках
Выбранный диапазон
Имя файла C:\Users\Alex\Downloads\Sonny Rollins - On Impulse\Sonny Rollins - On Impulse.wav
Пиковый уровень 81.4 %
Скорость извлечения 1.8 X
Качество диапазона 100.0 %
CRC теста B7C661A5
CRC копии B7C661A5
Копирование... OK
Ошибок не произошло
AccurateRip: сводка
Трек 1 : извлечено точно (доверие 5) [EDB60322] (AR v2)
Трек 2 : извлечено точно (доверие 5) [E951A379] (AR v2)
Трек 3 : извлечено точно (доверие 5) [B708E85B] (AR v2)
Трек 4 : извлечено точно (доверие 5) [C5CC8CF6] (AR v2)
Трек 5 : извлечено точно (доверие 5) [4DAE4C43] (AR v2)
Все треки извлечены точно
Конец отчёта
==== Контрольная сумма отчёта ECD4EB2D67F675C491B4A57E139EB46AFEC83D4A77DC0CF3EBB591EB3AC5E48C ====

If you like the topic, please click share to help develop our site.

To download the file disable ad blocking, and reload the page.

disable adblock How to disable ad blocking?

Download by magnet link 192 MB Download Torrent

Login using:

Similar topics



   
Current time is: 25-May 18:29 :: All times are UTC + 3