Jackie McLean / One Step Beyond (Japan CP32-9529)
Жанр: Bop, Free Jazz
Носитель: CD
Страна-производитель диска (релиза): Japan
Год издания: 1988 (1963)
Издатель (лейбл): Blue Note
Номер по каталогу: CP32-9529
Страна исполнителя (группы): USA
Аудиокодек: FLAC (*.flac)
Тип рипа: image+.cue
Битрейт аудио: lossless
Продолжительность: 37:33
Источник (релизер): собственный рип
Наличие сканов в содержимом раздачи: да
Треклист:
1. "Saturday and Sunday" - 10:30
2. "Saturday and Sunday" [Alternate Take] - 8:32
3. "Frankenstein" (Grachan Moncur III) - 7:32
4. "Blue Rondo" - 4:52
5. "Ghost Town" (Moncur) - 14:39

Лог создания рипа

Exact Audio Copy V1.0 beta 6 from 9. April 2015
Отчёт EAC об извлечении, выполненном 6. июня 2017, 23:24
Jackie McLean / One Step Beyond
Дисковод: MATSHITADVD-RAM UJ8B1AS Adapter: 1 ID: 0
Режим чтения : Достоверность
Использование точного потока : Да
Отключение кэша аудио : Да
Использование указателей C2 : Нет
Коррекция смещения при чтении : 6
Способность читать области Lead-in и Lead-out : Нет
Заполнение пропущенных сэмплов тишиной : Да
Удаление блоков с тишиной в начале и конце : Нет
При вычислениях CRC использовались нулевые сэмплы : Да
Интерфейс : Встроенный Win32-интерфейс для Win NT/2000
Выходной формат : Пользовательский кодировщик
Выбранный битрейт : 128 kBit/s
Качество : Высокий
Добавление ID3-тега : Нет
Утилита сжатия : C:\Program Files (x86)\Exact Audio Copy\Flac\flac.exe
Дополнительные параметры : -V -8 -T "Date=%year%" -T "Genre=%genre%" %source%
TOC извлечённого CD
Трек | Старт | Длительность | Начальный сектор | Конечный сектор
---------------------------------------------------------------------
1 | 0:00.00 | 10:30.30 | 0 | 47279
2 | 10:30.30 | 9:25.45 | 47280 | 89699
3 | 19:56.00 | 7:31.37 | 89700 | 123561
4 | 27:27.37 | 4:52.15 | 123562 | 145476
5 | 32:19.52 | 14:35.45 | 145477 | 211146
Характеристики диапазона извлечения и сообщения об ошибках
Выбранный диапазон
Имя файла C:\Users\Alex\Downloads\Jackie McLean - One Step Beyond\Jackie McLean - One Step Beyond.wav
Пиковый уровень 88.2 %
Скорость извлечения 1.9 X
Качество диапазона 100.0 %
CRC теста 7DE72C6A
CRC копии 7DE72C6A
Копирование... OK
Ошибок не произошло
AccurateRip: сводка
Трек 1 : извлечено точно (доверие 1) [7976C4D7] (AR v2)
Трек 2 : извлечено точно (доверие 1) [838BB943] (AR v2)
Трек 3 : извлечено точно (доверие 1) [85171CA4] (AR v2)
Трек 4 : извлечено точно (доверие 1) [CDA79AC0] (AR v2)
Трек 5 : извлечено точно (доверие 1) [ACB7F1BB] (AR v2)
Все треки извлечены точно
Конец отчёта
==== Контрольная сумма отчёта 69A91A65058B21747CB45C4AD7D6F0769067319050D6AA1BA69747F624279743 ====

If you like the topic, please click share to help develop our site.

To download the file disable ad blocking, and reload the page.

disable adblock How to disable ad blocking?

Download by magnet link 281 MB Download Torrent

Login using:

Similar topics



   
Current time is: 21-Jul 16:39 :: All times are UTC + 3