Marco Mezquida Trio + Bill McHenry - Cantabile Жанр: Post-Bop, Contemporary Jazz
Носитель: CD
Год издания: 2015
Издатель (лейбл): Fresh Sound New Talent
Номер по каталогу: FSNT-490
Аудиокодек: FLAC (*.flac)
Тип рипа: tracks+.cue
Битрейт аудио: lossless
Продолжительность: 59:08
Rip by jlgt
Наличие сканов в содержимом раздачи: да
Треклист:
01. Gira (3:13)
02. Joni Style (5:38)
03. Armando Rampas (5:03)
04. Radiohead Montsant Elevation (13:31)
05. Oh Mireia (3:20)
06. 1866 (8:00)
07. Menguante (7:23)
08. Managerini (7:48)
09. Cantabile (5:12)
Personnel:
Bill McHenry - ts
Marco Mezquida - p
Marko Lohikari - b
Carlos Falanga - d
Recorded at 44.1 Studios in Girona, Catalonia, on April 14, 2015.
 

Лог создания рипа

Exact Audio Copy V1.0 beta 3 from 29. August 2011
EAC extraction logfile from 24. May 2017, 9:50
Marco Mezquida Trio + Bill McHenry / Cantabile
Used drive : ASUS DRW-24F1ST a Adapter: 0 ID: 0
Read mode : Secure
Utilize accurate stream : Yes
Defeat audio cache : Yes
Make use of C2 pointers : No
Read offset correction : 6
Overread into Lead-In and Lead-Out : No
Fill up missing offset samples with silence : Yes
Delete leading and trailing silent blocks : No
Null samples used in CRC calculations : Yes
Used interface : Native Win32 interface for Win NT & 2000
Gap handling : Appended to previous track
Used output format : User Defined Encoder
Selected bitrate : 128 kBit/s
Quality : High
Add ID3 tag : No
Command line compressor : C:\Program Files (x86)\Exact Audio Copy\FLAC\FLAC.EXE
Additional command line options : -8 -V -T "ARTIST=%artist%" -T "TITLE=%title%" -T "ALBUM=%albumtitle%" -T "DATE=%year%" -T "TRACKNUMBER=%tracknr%" -T "TOTALTRACKS=%numtracks%" -T "GENRE=%genre%" -T "ALBUMARTIST=%albumartist%" -T "ALBUM ARTIST=%albumartist%" -T "COMMENT=EAC Secure Mode, Test & Copy, AccurateRip, FLAC -8" %source%
TOC of the extracted CD
Track | Start | Length | Start sector | End sector
---------------------------------------------------------
1 | 0:00.00 | 3:13.02 | 0 | 14476
2 | 3:13.02 | 5:38.15 | 14477 | 39841
3 | 8:51.17 | 5:02.65 | 39842 | 62556
4 | 13:54.07 | 13:31.16 | 62557 | 123397
5 | 27:25.23 | 3:19.65 | 123398 | 138387
6 | 30:45.13 | 8:00.03 | 138388 | 174390
7 | 38:45.16 | 7:23.00 | 174391 | 207615
8 | 46:08.16 | 7:48.23 | 207616 | 242738
9 | 53:56.39 | 5:11.54 | 242739 | 266117
Track 1
Filename K:\EAC\01 - Gira.wav
Pre-gap length 0:00:02.00
Peak level 98.8 %
Extraction speed 4.1 X
Track quality 100.0 %
Test CRC 4A8DBFBB
Copy CRC 4A8DBFBB
Track not present in AccurateRip database
Copy OK
Track 2
Filename K:\EAC\02 - Joni Style.wav
Pre-gap length 0:00:01.09
Peak level 97.8 %
Extraction speed 5.0 X
Track quality 100.0 %
Test CRC FB50B810
Copy CRC FB50B810
Track not present in AccurateRip database
Copy OK
Track 3
Filename K:\EAC\03 - Armando Rampas.wav
Peak level 95.5 %
Extraction speed 5.5 X
Track quality 100.0 %
Test CRC 0081B59F
Copy CRC 0081B59F
Track not present in AccurateRip database
Copy OK
Track 4
Filename K:\EAC\04 - Radiohead Montsant Elevation.wav
Pre-gap length 0:00:02.16
Peak level 98.8 %
Extraction speed 6.8 X
Track quality 100.0 %
Test CRC E8B3D1E2
Copy CRC E8B3D1E2
Track not present in AccurateRip database
Copy OK
Track 5
Filename K:\EAC\05 - Oh Mireia.wav
Peak level 98.6 %
Extraction speed 5.6 X
Track quality 99.9 %
Test CRC B87BA638
Copy CRC B87BA638
Track not present in AccurateRip database
Copy OK
Track 6
Filename K:\EAC\06 - 1866.wav
Peak level 98.8 %
Extraction speed 7.1 X
Track quality 99.9 %
Test CRC 633EC979
Copy CRC 633EC979
Track not present in AccurateRip database
Copy OK
Track 7
Filename K:\EAC\07 - Menguante.wav
Pre-gap length 0:00:02.07
Peak level 91.4 %
Extraction speed 8.3 X
Track quality 100.0 %
Test CRC 9F24BA87
Copy CRC 9F24BA87
Track not present in AccurateRip database
Copy OK
Track 8
Filename K:\EAC\08 - Managerini.wav
Pre-gap length 0:00:01.55
Peak level 97.7 %
Extraction speed 8.8 X
Track quality 100.0 %
Test CRC C0391C33
Copy CRC C0391C33
Track not present in AccurateRip database
Copy OK
Track 9
Filename K:\EAC\09 - Cantabile.wav
Pre-gap length 0:00:02.17
Peak level 98.8 %
Extraction speed 8.8 X
Track quality 100.0 %
Test CRC 00F31E17
Copy CRC 00F31E17
Track not present in AccurateRip database
Copy OK
None of the tracks are present in the AccurateRip database
No errors occurred
End of status report
==== Log checksum 1CAEC2AF7F99E603BC705A0E47B8323B81095FBF3F349FFAC2672C651FD7CBAD ====

Содержание индексной карты (.CUE)

REM GENRE Jazz
REM DATE 2015
REM DISCID 810DDC09
REM COMMENT "ExactAudioCopy v1.0b3"
PERFORMER "Marco Mezquida Trio + Bill McHenry"
TITLE "Cantabile"
FILE "01 - Gira.wav" WAVE
TRACK 01 AUDIO
TITLE "Gira"
PERFORMER "Marco Mezquida Trio + Bill McHenry"
INDEX 01 00:00:00
TRACK 02 AUDIO
TITLE "Joni Style"
PERFORMER "Marco Mezquida Trio + Bill McHenry"
INDEX 00 03:11:68
FILE "02 - Joni Style.wav" WAVE
INDEX 01 00:00:00
FILE "03 - Armando Rampas.wav" WAVE
TRACK 03 AUDIO
TITLE "Armando Rampas"
PERFORMER "Marco Mezquida Trio + Bill McHenry"
INDEX 01 00:00:00
TRACK 04 AUDIO
TITLE "Radiohead Montsant Elevation"
PERFORMER "Marco Mezquida Trio + Bill McHenry"
INDEX 00 05:00:49
FILE "04 - Radiohead Montsant Elevation.wav" WAVE
INDEX 01 00:00:00
FILE "05 - Oh Mireia.wav" WAVE
TRACK 05 AUDIO
TITLE "Oh Mireia"
PERFORMER "Marco Mezquida Trio + Bill McHenry"
INDEX 01 00:00:00
FILE "06 - 1866.wav" WAVE
TRACK 06 AUDIO
TITLE "1866"
PERFORMER "Marco Mezquida Trio + Bill McHenry"
INDEX 01 00:00:00
TRACK 07 AUDIO
TITLE "Menguante"
PERFORMER "Marco Mezquida Trio + Bill McHenry"
INDEX 00 07:57:71
FILE "07 - Menguante.wav" WAVE
INDEX 01 00:00:00
TRACK 08 AUDIO
TITLE "Managerini"
PERFORMER "Marco Mezquida Trio + Bill McHenry"
INDEX 00 07:21:20
FILE "08 - Managerini.wav" WAVE
INDEX 01 00:00:00
TRACK 09 AUDIO
TITLE "Cantabile"
PERFORMER "Marco Mezquida Trio + Bill McHenry"
INDEX 00 07:46:06
FILE "09 - Cantabile.wav" WAVE
INDEX 01 00:00:00

If you like the topic, please click share to help develop our site.

To download the file disable ad blocking, and reload the page.

disable adblock How to disable ad blocking?

Download by magnet link 403 MB Download Torrent

Login using:

Similar topics



   
Current time is: 19-Jul 12:59 :: All times are UTC + 3