David Gilmore - Transitions Жанр: Post-Bop
Носитель: CD
Год издания: 2017
Издатель (лейбл): Criss Cross Jazz
Номер по каталогу: Criss 1393 CD
Аудиокодек: FLAC (*.flac)
Тип рипа: tracks+.cue
Битрейт аудио: lossless
Продолжительность: 56:09
Rip by jlgt
Наличие сканов в содержимом раздачи: да
Треклист:
01. End of Daze (6:29)
02. Beyond All Limits (5:31)
03. Blues Mind Matter (7:06)
04. Bluesette (5:57)
05. Both (5:06)
06. Spontanuity (6:32)
07. Kid Logic (5:38)
08. Farralone (9:14)
09. Nem Un Talvez (4:36)
Personnel:
David Gilmore - g
Mark Shim - ts
Victor Gould - p
Carlo DeRosa - b
E.J. Strickland - d
Gregoire Maret - hmca (4)
Bill Ware - vib (8)
Rec.: Brooklyn, NY, September 19, 2016.
 

Об альбоме

The talented soloists are the highlight of the album, though small mistakes and a lack of continuity keep it from reaching its full potential
After appearing as a sideman on several recent Criss Cross releases, this 2017 album is guitarist David Gilmore's first as a leader for the label. He tackles a program of mostly covers, with a few originals mixed in, with a quintet consisting of tenor saxophonist Mark Shim, pianist Victor Gould, bassist Carlo De Rosa, and drummer E.J. Strickland. Vibraphonist Bill Ware and harmonica player Gregoire Maret also make guest appearances on one track each.
The program starts with an original by Gilmore, "End of Daze." The piece is rhythmically intricate and busy, with a knotty melody played in unison by Shim and Gilmore over the driving rhythm section. The solos are good, with each soloist taking things in a slightly different direction, however the rhythm section is somewhat relentless, at times playing too much, usually spurred on by Strickland's busy drumming. Gilmore's other original "Spontanuity" takes a more restrained approach, and is stronger for it. The subtle backbeat behind the simple melody isn't especially memorable, but the soloists all expand nicely on that melody, especially Shim, whose dark, earthy tenor tone lends a bit of an edge to the relatively "safe" tune.
Gilmore's choice of cover material that makes up the remainder of the program is quite varied. There are several post-bop classics: Woody Shaw's "Beyond All Limits" proves to be a good fit for the band and then two by Bobby Hutcherson. "Blues Mind Matter" starts with a busy weaving of melody and rhythmic hits, though the solos are fairly successful over a brisk swing feel. For the other Hutcherson tune, "Farralone," Gilmore augments the quintet with vibraphonist Bill Ware. Unfortunately the addition of this extra voice just complicates the already-too-busy rhythm section and doesn't really add much to the tune.
"Bluesette" is a tribute to Toots Thielman, and Shim is replaced for the track by hamonica player Gregoire Maret. The harmonica isn't always a popular instrument in jazz, but it's difficult not to be impressed with Maret's command on the instrument and the fluidity and effectiveness of his phrasing. Still, the change in instruments for this one track feels out of place on the album. Annette Peacock's "Both" is an interesting choice of covers, with a short melodic fragment leading into a somewhat aimless free improvisation. Victor Bailey's "Kid Logic" is a fun contemporary tune with Strickland switching over to hand percussion and the album closes with Gilmore on acoustic guitar for a serene ballad version of Hermeto Pascoal's "Nem Un Talvez."
There seems to be a very intentional sense of variety to this album, but the variety is so extreme that the album definitely lacks a cohesive feeling and spirit. The pieces are generally well-executed, though most members of the band occasionally fall into the trap of playing "too much." Strickland is especially guilty of this, with too many busy fills and extra cymbals getting in the way of the soloists. Gilmore and Gould both play engaging solos throughout, though sometimes it feels like they get in each other's ways while comping. The individual tracks themselves show potential from this group, but overall the album suffers from a lack of continuity and occasional overplaying.
Источник
-

Лог создания рипа

Exact Audio Copy V1.0 beta 3 from 29. August 2011
EAC extraction logfile from 14. May 2017, 22:19
David Gilmore / Transitions
Used drive : ASUS DRW-24F1ST a Adapter: 0 ID: 0
Read mode : Secure
Utilize accurate stream : Yes
Defeat audio cache : Yes
Make use of C2 pointers : No
Read offset correction : 6
Overread into Lead-In and Lead-Out : No
Fill up missing offset samples with silence : Yes
Delete leading and trailing silent blocks : No
Null samples used in CRC calculations : Yes
Used interface : Native Win32 interface for Win NT & 2000
Gap handling : Appended to previous track
Used output format : User Defined Encoder
Selected bitrate : 128 kBit/s
Quality : High
Add ID3 tag : No
Command line compressor : C:\Program Files (x86)\Exact Audio Copy\FLAC\FLAC.EXE
Additional command line options : -8 -V -T "ARTIST=%artist%" -T "TITLE=%title%" -T "ALBUM=%albumtitle%" -T "DATE=%year%" -T "TRACKNUMBER=%tracknr%" -T "TOTALTRACKS=%numtracks%" -T "GENRE=%genre%" -T "ALBUMARTIST=%albumartist%" -T "ALBUM ARTIST=%albumartist%" -T "COMMENT=EAC Secure Mode, Test & Copy, AccurateRip, FLAC -8" %source%
TOC of the extracted CD
Track | Start | Length | Start sector | End sector
---------------------------------------------------------
1 | 0:00.00 | 6:28.58 | 0 | 29157
2 | 6:28.58 | 5:31.36 | 29158 | 54018
3 | 12:00.19 | 7:06.06 | 54019 | 85974
4 | 19:06.25 | 5:57.04 | 85975 | 112753
5 | 25:03.29 | 5:05.47 | 112754 | 135675
6 | 30:09.01 | 6:32.04 | 135676 | 165079
7 | 36:41.05 | 5:37.39 | 165080 | 190393
8 | 42:18.44 | 9:13.47 | 190394 | 231915
9 | 51:32.16 | 4:36.26 | 231916 | 252641
Track 1
Filename K:\EAC\01 - End of Daze.wav
Pre-gap length 0:00:02.00
Peak level 99.6 %
Extraction speed 4.3 X
Track quality 99.9 %
Test CRC 83130125
Copy CRC 83130125
Track not present in AccurateRip database
Copy OK
Track 2
Filename K:\EAC\02 - Beyond All Limits.wav
Peak level 98.3 %
Extraction speed 5.1 X
Track quality 100.0 %
Test CRC E6202624
Copy CRC E6202624
Track not present in AccurateRip database
Copy OK
Track 3
Filename K:\EAC\03 - Blues Mind Matter.wav
Peak level 98.3 %
Extraction speed 5.9 X
Track quality 100.0 %
Test CRC E6B9A19F
Copy CRC E6B9A19F
Track not present in AccurateRip database
Copy OK
Track 4
Filename K:\EAC\04 - Bluesette.wav
Peak level 97.8 %
Extraction speed 6.2 X
Track quality 100.0 %
Test CRC AF062FA3
Copy CRC AF062FA3
Track not present in AccurateRip database
Copy OK
Track 5
Filename K:\EAC\05 - Both.wav
Peak level 97.7 %
Extraction speed 6.6 X
Track quality 100.0 %
Test CRC 8B5ADD28
Copy CRC 8B5ADD28
Track not present in AccurateRip database
Copy OK
Track 6
Filename K:\EAC\06 - Spontanuity.wav
Peak level 98.2 %
Extraction speed 7.3 X
Track quality 100.0 %
Test CRC 15303CDB
Copy CRC 15303CDB
Track not present in AccurateRip database
Copy OK
Track 7
Filename K:\EAC\07 - Kid Logic.wav
Peak level 98.2 %
Extraction speed 7.3 X
Track quality 100.0 %
Test CRC 335415D2
Copy CRC 335415D2
Track not present in AccurateRip database
Copy OK
Track 8
Filename K:\EAC\08 - Farralone.wav
Peak level 99.9 %
Extraction speed 8.2 X
Track quality 100.0 %
Test CRC 36710E20
Copy CRC 36710E20
Track not present in AccurateRip database
Copy OK
Track 9
Filename K:\EAC\09 - Nem Un Talvez.wav
Peak level 93.9 %
Extraction speed 8.0 X
Track quality 100.0 %
Test CRC D2AC775A
Copy CRC D2AC775A
Track not present in AccurateRip database
Copy OK
None of the tracks are present in the AccurateRip database
No errors occurred
End of status report
==== Log checksum 6EB2480456CB75710750EAC107EA9EC1097809875CA0FCFA2685837094CDD74E ====

Содержание индексной карты (.CUE)

REM GENRE Jazz
REM DATE 2017
REM DISCID 5F0D2809
REM COMMENT "ExactAudioCopy v1.0b3"
PERFORMER "David Gilmore"
TITLE "Transitions"
FILE "01 - End of Daze.wav" WAVE
TRACK 01 AUDIO
TITLE "End of Daze"
PERFORMER "David Gilmore"
INDEX 01 00:00:00
FILE "02 - Beyond All Limits.wav" WAVE
TRACK 02 AUDIO
TITLE "Beyond All Limits"
PERFORMER "David Gilmore"
INDEX 01 00:00:00
FILE "03 - Blues Mind Matter.wav" WAVE
TRACK 03 AUDIO
TITLE "Blues Mind Matter"
PERFORMER "David Gilmore"
INDEX 01 00:00:00
FILE "04 - Bluesette.wav" WAVE
TRACK 04 AUDIO
TITLE "Bluesette"
PERFORMER "David Gilmore"
INDEX 01 00:00:00
FILE "05 - Both.wav" WAVE
TRACK 05 AUDIO
TITLE "Both"
PERFORMER "David Gilmore"
INDEX 01 00:00:00
FILE "06 - Spontanuity.wav" WAVE
TRACK 06 AUDIO
TITLE "Spontanuity"
PERFORMER "David Gilmore"
INDEX 01 00:00:00
FILE "07 - Kid Logic.wav" WAVE
TRACK 07 AUDIO
TITLE "Kid Logic"
PERFORMER "David Gilmore"
INDEX 01 00:00:00
FILE "08 - Farralone.wav" WAVE
TRACK 08 AUDIO
TITLE "Farralone"
PERFORMER "David Gilmore"
INDEX 01 00:00:00
FILE "09 - Nem Un Talvez.wav" WAVE
TRACK 09 AUDIO
TITLE "Nem Un Talvez"
PERFORMER "David Gilmore"
INDEX 01 00:00:00

If you like the topic, please click share to help develop our site.

To download the file disable ad blocking, and reload the page.

disable adblock How to disable ad blocking?

Download by magnet link 409 MB Download Torrent

Login using:

Similar topics



   
Current time is: 25-May 17:55 :: All times are UTC + 3