Marc Martin Trio - Roaming Жанр: Post-Bop
Носитель: CD
Год издания: 2016
Издатель (лейбл): Swit Records
Номер по каталогу: SWIT22
Аудиокодек: FLAC (*.flac)
Тип рипа: tracks+.cue
Битрейт аудио: lossless
Продолжительность: 51:56
Rip by jlgt
Наличие сканов в содержимом раздачи: да
Треклист:
01. Wabi (5:15)
02. Cheeck To Cheeck (6:34)
03. Eternal (6:27)
04. Simulation (4:35)
05. The Nearness Of You (5:20)
06. Easy Day (6:07)
07. Room 93 (7:58)
08. Miss Fred (4:57)
09. Capvespre (4:43)
Personnel:
Marc Martín - p
Juan Pastor - b
Jordi Pallarés - d
Recorded at the Auditori Pau Casals in El Vendrell, on June 9, 2016.
 

Об альбоме

"This recording is yet another example -and one that's right on target- of the possibilities affered by the classic 'piano-bass-drums' combo in the traditional jazz framework. With a carefully selected and impeccably executed repertoire, these three young musicians manage to maintain a high level of interest from start to finish, using such basic elements as well-crafted development of theme, character, and discipline in the moments of interaction, and a good use of dynamics. And on top of everything, swing and more swing."
~~ Aldo Caviglia (drummer)
-

Лог создания рипа

Exact Audio Copy V1.0 beta 3 from 29. August 2011
EAC extraction logfile from 25. April 2017, 22:18
Marc Martin Trio / Roaming
Used drive : ASUS DRW-24F1ST a Adapter: 0 ID: 0
Read mode : Secure
Utilize accurate stream : Yes
Defeat audio cache : Yes
Make use of C2 pointers : No
Read offset correction : 6
Overread into Lead-In and Lead-Out : No
Fill up missing offset samples with silence : Yes
Delete leading and trailing silent blocks : No
Null samples used in CRC calculations : Yes
Used interface : Native Win32 interface for Win NT & 2000
Gap handling : Appended to previous track
Used output format : User Defined Encoder
Selected bitrate : 128 kBit/s
Quality : High
Add ID3 tag : No
Command line compressor : C:\Program Files (x86)\Exact Audio Copy\FLAC\FLAC.EXE
Additional command line options : -8 -V -T "ARTIST=%artist%" -T "TITLE=%title%" -T "ALBUM=%albumtitle%" -T "DATE=%year%" -T "TRACKNUMBER=%tracknr%" -T "TOTALTRACKS=%numtracks%" -T "GENRE=%genre%" -T "ALBUMARTIST=%albumartist%" -T "ALBUM ARTIST=%albumartist%" -T "COMMENT=EAC Secure Mode, Test & Copy, AccurateRip, FLAC -8" %source%
TOC of the extracted CD
Track | Start | Length | Start sector | End sector
---------------------------------------------------------
1 | 0:00.00 | 5:15.02 | 0 | 23626
2 | 5:15.02 | 6:34.07 | 23627 | 53183
3 | 11:49.09 | 6:27.24 | 53184 | 82232
4 | 18:16.33 | 4:34.49 | 82233 | 102831
5 | 22:51.07 | 5:20.16 | 102832 | 126847
6 | 28:11.23 | 6:06.72 | 126848 | 154369
7 | 34:18.20 | 7:58.11 | 154370 | 190230
8 | 42:16.31 | 4:57.02 | 190231 | 212507
9 | 47:13.33 | 4:42.54 | 212508 | 233711
Track 1
Filename K:\EAC\01 - Wabi.wav
Pre-gap length 0:00:02.00
Peak level 95.5 %
Extraction speed 4.0 X
Track quality 99.9 %
Test CRC EC4C194C
Copy CRC EC4C194C
Track not present in AccurateRip database
Copy OK
Track 2
Filename K:\EAC\02 - Cheeck To Cheeck.wav
Pre-gap length 0:00:02.00
Peak level 95.5 %
Extraction speed 4.9 X
Track quality 99.9 %
Test CRC 0C0EC7B2
Copy CRC 0C0EC7B2
Track not present in AccurateRip database
Copy OK
Track 3
Filename K:\EAC\03 - Eternal.wav
Pre-gap length 0:00:02.00
Peak level 95.5 %
Extraction speed 5.9 X
Track quality 100.0 %
Test CRC 5240223D
Copy CRC 5240223D
Track not present in AccurateRip database
Copy OK
Track 4
Filename K:\EAC\04 - Simulation.wav
Pre-gap length 0:00:02.00
Peak level 95.5 %
Extraction speed 6.2 X
Track quality 100.0 %
Test CRC 0D67036F
Copy CRC 0D67036F
Track not present in AccurateRip database
Copy OK
Track 5
Filename K:\EAC\05 - The Nearness Of You.wav
Pre-gap length 0:00:02.00
Peak level 95.5 %
Extraction speed 6.7 X
Track quality 100.0 %
Test CRC FCFAB0D0
Copy CRC FCFAB0D0
Track not present in AccurateRip database
Copy OK
Track 6
Filename K:\EAC\06 - Easy Day.wav
Pre-gap length 0:00:01.74
Peak level 95.5 %
Extraction speed 7.2 X
Track quality 100.0 %
Test CRC 8A8EE824
Copy CRC 8A8EE824
Track not present in AccurateRip database
Copy OK
Track 7
Filename K:\EAC\07 - Room 93.wav
Pre-gap length 0:00:02.00
Peak level 95.5 %
Extraction speed 7.9 X
Track quality 100.0 %
Test CRC D1EFE298
Copy CRC D1EFE298
Track not present in AccurateRip database
Copy OK
Track 8
Filename K:\EAC\08 - Miss Fred.wav
Pre-gap length 0:00:01.74
Peak level 95.5 %
Extraction speed 7.8 X
Track quality 100.0 %
Test CRC C19454D7
Copy CRC C19454D7
Track not present in AccurateRip database
Copy OK
Track 9
Filename K:\EAC\09 - Capvespre.wav
Pre-gap length 0:00:02.00
Peak level 95.5 %
Extraction speed 8.0 X
Track quality 100.0 %
Test CRC 9A12D687
Copy CRC 9A12D687
Track not present in AccurateRip database
Copy OK
None of the tracks are present in the AccurateRip database
No errors occurred
End of status report
==== Log checksum DDFBEFDC9700102E66A89BB3F0CF438BBEB3A7A8A7D4FE62F62416095CBA0419 ====

Содержание индексной карты (.CUE)

REM GENRE Jazz
REM DATE 2016
REM DISCID 750C2C09
REM COMMENT "ExactAudioCopy v1.0b3"
PERFORMER "Marc Martin Trio"
TITLE "Roaming"
FILE "01 - Wabi.wav" WAVE
TRACK 01 AUDIO
TITLE "Wabi"
PERFORMER "Marc Martin Trio"
INDEX 01 00:00:00
TRACK 02 AUDIO
TITLE "Cheeck To Cheeck"
PERFORMER "Marc Martin Trio"
INDEX 00 05:13:02
FILE "02 - Cheeck To Cheeck.wav" WAVE
INDEX 01 00:00:00
TRACK 03 AUDIO
TITLE "Eternal"
PERFORMER "Marc Martin Trio"
INDEX 00 06:32:07
FILE "03 - Eternal.wav" WAVE
INDEX 01 00:00:00
TRACK 04 AUDIO
TITLE "Simulation"
PERFORMER "Marc Martin Trio"
INDEX 00 06:25:24
FILE "04 - Simulation.wav" WAVE
INDEX 01 00:00:00
TRACK 05 AUDIO
TITLE "The Nearness Of You"
PERFORMER "Marc Martin Trio"
INDEX 00 04:32:49
FILE "05 - The Nearness Of You.wav" WAVE
INDEX 01 00:00:00
TRACK 06 AUDIO
TITLE "Easy Day"
PERFORMER "Marc Martin Trio"
INDEX 00 05:18:17
FILE "06 - Easy Day.wav" WAVE
INDEX 01 00:00:00
TRACK 07 AUDIO
TITLE "Room 93"
PERFORMER "Marc Martin Trio"
INDEX 00 06:04:72
FILE "07 - Room 93.wav" WAVE
INDEX 01 00:00:00
TRACK 08 AUDIO
TITLE "Miss Fred"
PERFORMER "Marc Martin Trio"
INDEX 00 07:56:12
FILE "08 - Miss Fred.wav" WAVE
INDEX 01 00:00:00
TRACK 09 AUDIO
TITLE "Capvespre"
PERFORMER "Marc Martin Trio"
INDEX 00 04:55:02
FILE "09 - Capvespre.wav" WAVE
INDEX 01 00:00:00

If you like the topic, please click share to help develop our site.

To download the file disable ad blocking, and reload the page.

disable adblock How to disable ad blocking?

Download by magnet link 381 MB Download Torrent

Login using:

Similar topics



   
Current time is: 21-Jul 16:06 :: All times are UTC + 3