Trio Hein Van Der Gaag - To The Point (1986) Жанр: Post-Bop
Носитель: CD
Страна-производитель диска (релиза): Japan
Год издания: 2016
Издатель (лейбл): Limetree/Timeless Records/Solid Records Japan/Ultra-Vibe
Номер по каталогу: CDSOL-6432
Аудиокодек: FLAC (*.flac)
Тип рипа: tracks+.cue
Битрейт аудио: lossless
Продолжительность: 53:58
Источник (релизер): ruskaval
Наличие сканов в содержимом раздачи: да
Треклист:
01. Ecaroh (4:35)
02. The More I See You (9:24)
03. Lament For Edda (5:25)
04. Blues For Carla (5:35)
05. Once I Loved (9:32)
06. The Good Life (4:54)
07. You Leave Me Breathless (6:55)
08. Nite Mist Blues (6:58)
09. Tune (0:41)
Personnel:
Hein Van Der Gaag - piano
Joep Lumey - bass
Ben Schröder - drums
Rec.: live at Café Alto, Amsterdam, Holland, October 3, 1986.
 

Об альбоме (сборнике)

Reissue with the latest remastering and the original cover artwork. Comes with a description written in Japanese. Pianist Hein Van Der Gaag definitely gets right to the point here – starting off the album with a great version of Horace Silver's "Ecaroh" that's filled with these descending note clusters that really open up the tune – setting up this bold, dark mood which is then balanced over the course of some more introspective tunes that follow! The approach is great – that really special way of creating a trio session that the Limetree label had during the 80s – a quality that's maybe made the imprint one of the best on the European scene at the time for piano jazz. Hein's group here features Joep Lumey on bass and Ben Schroeder on drums.
-

Лог создания рипа

Exact Audio Copy V1.1 from 23. June 2015
EAC extraction logfile from 5. June 2017, 23:11
Trio Hein Van Der Gaag / To The Point
Used drive : TSSTcorpCDDVDW SE-208DB Adapter: 1 ID: 2
Read mode : Secure
Utilize accurate stream : Yes
Defeat audio cache : Yes
Make use of C2 pointers : No
Read offset correction : 6
Overread into Lead-In and Lead-Out : No
Fill up missing offset samples with silence : Yes
Delete leading and trailing silent blocks : No
Null samples used in CRC calculations : Yes
Used interface : Native Win32 interface for Win NT & 2000
Gap handling : Appended to previous track
Used output format : User Defined Encoder
Selected bitrate : 1024 kBit/s
Quality : High
Add ID3 tag : No
Command line compressor : C:\Program Files (x86)\FLAC Frontend\tools\flac.exe
Additional command line options : -8 -V -T "ARTIST=%artist%" -T "TITLE=%title%" -T "ALBUM=%albumtitle%" -T "DATE=%year%" -T "TRACKNUMBER=%tracknr%" -T "TOTALTRACKS=%numtracks%" -T "GENRE=%genre%" -T "ALBUMARTIST=%albumartist%" -T "ALBUM ARTIST=%albumartist%" -T "COMMENT=EAC Secure Mode, Test & Copy, AccurateRip, FLAC -8" %source%
TOC of the extracted CD
Track | Start | Length | Start sector | End sector
---------------------------------------------------------
1 | 0:00.00 | 4:34.58 | 0 | 20607
2 | 4:34.58 | 9:23.43 | 20608 | 62875
3 | 13:58.26 | 5:25.11 | 62876 | 87261
4 | 19:23.37 | 5:34.46 | 87262 | 112357
5 | 24:58.08 | 9:32.14 | 112358 | 155271
6 | 34:30.22 | 4:53.47 | 155272 | 177293
7 | 39:23.69 | 6:55.28 | 177294 | 208446
8 | 46:19.22 | 6:58.05 | 208447 | 239801
9 | 53:17.27 | 0:40.52 | 239802 | 242853
Track 1
Filename D:\_EAC\Trio Hein Van Der Gaag - To The Point (1986) [FLAC] {CDSOL-6432}\01 - Ecaroh.wav
Pre-gap length 0:00:02.00
Peak level 97.9 %
Extraction speed 2.5 X
Track quality 100.0 %
Test CRC 0842598D
Copy CRC 0842598D
Track not present in AccurateRip database
Copy OK
Track 2
Filename D:\_EAC\Trio Hein Van Der Gaag - To The Point (1986) [FLAC] {CDSOL-6432}\02 - The More I See You.wav
Peak level 98.0 %
Extraction speed 3.4 X
Track quality 100.0 %
Test CRC DE2DC2A3
Copy CRC DE2DC2A3
Track not present in AccurateRip database
Copy OK
Track 3
Filename D:\_EAC\Trio Hein Van Der Gaag - To The Point (1986) [FLAC] {CDSOL-6432}\03 - Lament For Edda.wav
Peak level 97.8 %
Extraction speed 3.7 X
Track quality 100.0 %
Test CRC BBC19793
Copy CRC BBC19793
Track not present in AccurateRip database
Copy OK
Track 4
Filename D:\_EAC\Trio Hein Van Der Gaag - To The Point (1986) [FLAC] {CDSOL-6432}\04 - Blues For Carla.wav
Peak level 98.1 %
Extraction speed 3.4 X
Track quality 99.9 %
Test CRC 76E04E86
Copy CRC 76E04E86
Track not present in AccurateRip database
Copy OK
Track 5
Filename D:\_EAC\Trio Hein Van Der Gaag - To The Point (1986) [FLAC] {CDSOL-6432}\05 - Once I Loved.wav
Peak level 97.8 %
Extraction speed 4.5 X
Track quality 100.0 %
Test CRC 87CBA875
Copy CRC 87CBA875
Track not present in AccurateRip database
Copy OK
Track 6
Filename D:\_EAC\Trio Hein Van Der Gaag - To The Point (1986) [FLAC] {CDSOL-6432}\06 - The Good Life.wav
Peak level 91.3 %
Extraction speed 4.6 X
Track quality 100.0 %
Test CRC 76B7C04C
Copy CRC 76B7C04C
Track not present in AccurateRip database
Copy OK
Track 7
Filename D:\_EAC\Trio Hein Van Der Gaag - To The Point (1986) [FLAC] {CDSOL-6432}\07 - You Leave Me Breathless.wav
Peak level 97.8 %
Extraction speed 5.0 X
Track quality 100.0 %
Test CRC 978663B6
Copy CRC 978663B6
Track not present in AccurateRip database
Copy OK
Track 8
Filename D:\_EAC\Trio Hein Van Der Gaag - To The Point (1986) [FLAC] {CDSOL-6432}\08 - Nite Mist Blues.wav
Pre-gap length 0:00:00.74
Peak level 97.6 %
Extraction speed 5.3 X
Track quality 100.0 %
Test CRC 81D17C00
Copy CRC 81D17C00
Track not present in AccurateRip database
Copy OK
Track 9
Filename D:\_EAC\Trio Hein Van Der Gaag - To The Point (1986) [FLAC] {CDSOL-6432}\09 - Tune.wav
Peak level 97.6 %
Extraction speed 2.9 X
Track quality 100.0 %
Test CRC 9B27E40C
Copy CRC 9B27E40C
Track not present in AccurateRip database
Copy OK
None of the tracks are present in the AccurateRip database
No errors occurred
End of status report
==== Log checksum 514D494C23A5525DE82FDABF5EFB016B3DF1C0BD56DBECC3706DB124C965F5DD ====

Содержание индексной карты (.CUE)

REM GENRE Jazz
REM DATE 1986
REM DISCID 730CA609
REM COMMENT "ExactAudioCopy v1.1"
PERFORMER "Trio Hein Van Der Gaag"
TITLE "To The Point"
FILE "01 - Ecaroh.wav" WAVE
TRACK 01 AUDIO
TITLE "Ecaroh"
PERFORMER "Trio Hein Van Der Gaag"
INDEX 01 00:00:00
FILE "02 - The More I See You.wav" WAVE
TRACK 02 AUDIO
TITLE "The More I See You"
PERFORMER "Trio Hein Van Der Gaag"
INDEX 01 00:00:00
FILE "03 - Lament For Edda.wav" WAVE
TRACK 03 AUDIO
TITLE "Lament For Edda"
PERFORMER "Trio Hein Van Der Gaag"
INDEX 01 00:00:00
FILE "04 - Blues For Carla.wav" WAVE
TRACK 04 AUDIO
TITLE "Blues For Carla"
PERFORMER "Trio Hein Van Der Gaag"
INDEX 01 00:00:00
FILE "05 - Once I Loved.wav" WAVE
TRACK 05 AUDIO
TITLE "Once I Loved"
PERFORMER "Trio Hein Van Der Gaag"
INDEX 01 00:00:00
FILE "06 - The Good Life.wav" WAVE
TRACK 06 AUDIO
TITLE "The Good Life"
PERFORMER "Trio Hein Van Der Gaag"
INDEX 01 00:00:00
FILE "07 - You Leave Me Breathless.wav" WAVE
TRACK 07 AUDIO
TITLE "You Leave Me Breathless"
PERFORMER "Trio Hein Van Der Gaag"
INDEX 01 00:00:00
TRACK 08 AUDIO
TITLE "Nite Mist Blues"
PERFORMER "Trio Hein Van Der Gaag"
INDEX 00 06:54:29
FILE "08 - Nite Mist Blues.wav" WAVE
INDEX 01 00:00:00
FILE "09 - Tune.wav" WAVE
TRACK 09 AUDIO
TITLE "Tune"
PERFORMER "Trio Hein Van Der Gaag"
INDEX 01 00:00:00
 

If you like the topic, please click share to help develop our site.

To download the file disable ad blocking, and reload the page.

disable adblock How to disable ad blocking?

Download by magnet link 458 MB Download Torrent

Login using:

Similar topics



   
Current time is: 27-May 03:19 :: All times are UTC + 3