-Buddy DeFranco and the All-Stars - Wholly Cats.The Complete "Plays Benny Goodman and Artie Shaw Sessions" Vol.1 - 2007- Жанр: Swing
Носитель: CD (compilation)
Страна-производитель диска (релиза): E.U.
Год издания: 2007
Издатель (лейбл): LoneHill Jazz
Номер по каталогу: LHJ10282
Страна исполнителя (группы) : USA
Аудио кодек: FLAC (*.flac)
Тип рипа: (tracks + .cue)
Битрейт аудио: lossless
Наличие сканов в содержимом раздачи: full scans
Продолжительность: 1:11:52
Источник (релизер): Waffles, Anonimous
Трэклист:
1 Benny's Bugle (Goodman) 5:55
2 A Smooth One (Goodman) 6:39
3 Air Mail Special (Christian, Goodman, Mundy) 4:37
4 More Than You Know (Eliscu, Rose, Youmans) 5:23
5 Wholly Cats (Goodman) 11:49
6 Goodbye (Jenkins) 2:27
7 Seven Come Eleven (Christian, Goodman) 4:45
8 My Blue Heaven (Donaldson, Whting) 3:55
9 Stardust (Carmichael, Parish) 4:45
10 Cross Your Heart (DeSylva, Gensler) 4:48
11 Frenesi (Dominguez, Whitcup) 5:09
12 Medley : Dancing in the Dark - Moonglow - Time on My Hands (Adamson, DeLange, Dietz, Gordon) 3:31
13 Indian Love Call (Friml, Hammerstein, Harbach, Harbach) 3:31
14 Summit Ridge Drive (Shaw) 4:31

Лог создания рипа (11. May 2015)

Exact Audio Copy V0.99 prebeta 5 from 4. May 2009
EAC extraction logfile from 11. May 2015, 19:48
Buddy DeFranco / Wholly Cats
Used drive : PLEXTOR DVDR PX-L890SA Adapter: 6 ID: 0
Read mode : Secure
Utilize accurate stream : Yes
Defeat audio cache : Yes
Make use of C2 pointers : No
Read offset correction : 6
Overread into Lead-In and Lead-Out : No
Fill up missing offset samples with silence : Yes
Delete leading and trailing silent blocks : No
Null samples used in CRC calculations : Yes
Used interface : Native Win32 interface for Win NT & 2000
Gap handling : Appended to previous track
Used output format : User Defined Encoder
Selected bitrate : 1024 kBit/s
Quality : High
Add ID3 tag : No
Command line compressor : C:\Program Files (x86)\FLAC Frontend\tools\flac.exe
Additional command line options : -8 -V -T "ARTIST=%a" -T "TITLE=%t" -T "ALBUM=%g" -T "DATE=%y" -T "TRACKNUMBER=%n" -T "GENRE=%m" -T "COMMENT=EAC FLAC -8" %s
TOC of the extracted CD
Track | Start | Length | Start sector | End sector
---------------------------------------------------------
1 | 0:00.00 | 5:55.43 | 0 | 26667
2 | 5:55.43 | 6:39.51 | 26668 | 56643
3 | 12:35.19 | 4:37.50 | 56644 | 77468
4 | 17:12.69 | 5:23.59 | 77469 | 101752
5 | 22:36.53 | 11:49.24 | 101753 | 154951
6 | 34:26.02 | 2:27.74 | 154952 | 166050
7 | 36:54.01 | 4:45.06 | 166051 | 187431
8 | 41:39.07 | 3:55.29 | 187432 | 205085
9 | 45:34.36 | 4:45.03 | 205086 | 226463
10 | 50:19.39 | 4:48.48 | 226464 | 248111
11 | 55:08.12 | 5:09.22 | 248112 | 271308
12 | 60:17.34 | 3:31.49 | 271309 | 287182
13 | 63:49.08 | 3:31.63 | 287183 | 303070
14 | 67:20.71 | 4:31.23 | 303071 | 323418
Track 1
Filename D:\Buddy DeFranco - Wholly Cats (1957) [FLAC] {2007 Lone Hill Jazz Remaster}\01 - Benny's Bugle.wav
Pre-gap length 0:00:02.00
Peak level 100.0 %
Track quality 100.0 %
Test CRC E2F7803D
Copy CRC E2F7803D
Cannot be verified as accurate (confidence 3) [6F4E649D], AccurateRip returned [DCF20411]
Copy OK
Track 2
Filename D:\Buddy DeFranco - Wholly Cats (1957) [FLAC] {2007 Lone Hill Jazz Remaster}\02 - A Smooth One.wav
Peak level 88.5 %
Track quality 100.0 %
Test CRC 97B4D832
Copy CRC 97B4D832
Cannot be verified as accurate (confidence 3) [69F9D538], AccurateRip returned [E71295C8]
Copy OK
Track 3
Filename D:\Buddy DeFranco - Wholly Cats (1957) [FLAC] {2007 Lone Hill Jazz Remaster}\03 - Air Mail Special.wav
Peak level 95.2 %
Track quality 100.0 %
Test CRC 9796B226
Copy CRC 9796B226
Cannot be verified as accurate (confidence 3) [198A870F], AccurateRip returned [49D3E8AC]
Copy OK
Track 4
Filename D:\Buddy DeFranco - Wholly Cats (1957) [FLAC] {2007 Lone Hill Jazz Remaster}\04 - More Than You Know.wav
Peak level 91.6 %
Track quality 100.0 %
Test CRC A351E931
Copy CRC A351E931
Cannot be verified as accurate (confidence 3) [9666603A], AccurateRip returned [835F93CF]
Copy OK
Track 5
Filename D:\Buddy DeFranco - Wholly Cats (1957) [FLAC] {2007 Lone Hill Jazz Remaster}\05 - Wholly Cats.wav
Peak level 100.0 %
Track quality 100.0 %
Test CRC 6091C556
Copy CRC 6091C556
Cannot be verified as accurate (confidence 3) [D0A752A2], AccurateRip returned [1017BDE6]
Copy OK
Track 6
Filename D:\Buddy DeFranco - Wholly Cats (1957) [FLAC] {2007 Lone Hill Jazz Remaster}\06 - Goodbye.wav
Peak level 88.4 %
Track quality 100.0 %
Test CRC EF721917
Copy CRC EF721917
Cannot be verified as accurate (confidence 3) [1CC59717], AccurateRip returned [CB3675EC]
Copy OK
Track 7
Filename D:\Buddy DeFranco - Wholly Cats (1957) [FLAC] {2007 Lone Hill Jazz Remaster}\07 - Seven Come Eleven.wav
Peak level 91.8 %
Track quality 100.0 %
Test CRC 8A8A44F0
Copy CRC 8A8A44F0
Cannot be verified as accurate (confidence 3) [819C66D5], AccurateRip returned [DA0EF3AC]
Copy OK
Track 8
Filename D:\Buddy DeFranco - Wholly Cats (1957) [FLAC] {2007 Lone Hill Jazz Remaster}\08 - My Blue Heaven.wav
Peak level 90.0 %
Track quality 100.0 %
Test CRC A21FB246
Copy CRC A21FB246
Cannot be verified as accurate (confidence 3) [169E0DB7], AccurateRip returned [AEA70041]
Copy OK
Track 9
Filename D:\Buddy DeFranco - Wholly Cats (1957) [FLAC] {2007 Lone Hill Jazz Remaster}\09 - Stardust.wav
Peak level 95.7 %
Track quality 100.0 %
Test CRC 1A25399F
Copy CRC 1A25399F
Cannot be verified as accurate (confidence 3) [8138EEF1], AccurateRip returned [DC02B8E1]
Copy OK
Track 10
Filename D:\Buddy DeFranco - Wholly Cats (1957) [FLAC] {2007 Lone Hill Jazz Remaster}\10 - Cross Your Heart.wav
Peak level 100.0 %
Track quality 100.0 %
Test CRC 4847F3D0
Copy CRC 4847F3D0
Cannot be verified as accurate (confidence 3) [B7162C4F], AccurateRip returned [43B86DF2]
Copy OK
Track 11
Filename D:\Buddy DeFranco - Wholly Cats (1957) [FLAC] {2007 Lone Hill Jazz Remaster}\11 - Frenesi.wav
Peak level 100.0 %
Track quality 100.0 %
Test CRC 1A50618C
Copy CRC 1A50618C
Cannot be verified as accurate (confidence 3) [21219251], AccurateRip returned [44944633]
Copy OK
Track 12
Filename D:\Buddy DeFranco - Wholly Cats (1957) [FLAC] {2007 Lone Hill Jazz Remaster}\12 - Medley- Dancing In The Dark , Moonglow , Time On My Hands.wav
Peak level 96.5 %
Track quality 100.0 %
Test CRC FECF8563
Copy CRC FECF8563
Cannot be verified as accurate (confidence 3) [90A2B52C], AccurateRip returned [6935C710]
Copy OK
Track 13
Filename D:\Buddy DeFranco - Wholly Cats (1957) [FLAC] {2007 Lone Hill Jazz Remaster}\13 - Indian Love Call.wav
Peak level 99.0 %
Track quality 99.9 %
Test CRC 6DEAB126
Copy CRC 6DEAB126
Cannot be verified as accurate (confidence 3) [405A86AA], AccurateRip returned [5632B0A5]
Copy OK
Track 14
Filename D:\Buddy DeFranco - Wholly Cats (1957) [FLAC] {2007 Lone Hill Jazz Remaster}\14 - Summit Ridge Drive.wav
Peak level 93.9 %
Track quality 99.9 %
Test CRC DBDC5095
Copy CRC DBDC5095
Cannot be verified as accurate (confidence 3) [0F50287E], AccurateRip returned [50F435E8]
Copy OK
No tracks could be verified as accurate
You may have a different pressing from the one(s) in the database
No errors occurred
End of status report

Содержание индексной карты (.CUE):

REM GENRE Jazz
REM DATE 1957
REM DISCID AB10D80E
REM COMMENT "ExactAudioCopy v0.99pb5"
PERFORMER "Buddy DeFranco"
TITLE "Wholly Cats"
FILE "01 - Benny's Bugle.wav" WAVE
TRACK 01 AUDIO
TITLE "Benny's Bugle"
PERFORMER "Buddy DeFranco"
INDEX 01 00:00:00
FILE "02 - A Smooth One.wav" WAVE
TRACK 02 AUDIO
TITLE "A Smooth One"
PERFORMER "Buddy DeFranco"
INDEX 01 00:00:00
FILE "03 - Air Mail Special.wav" WAVE
TRACK 03 AUDIO
TITLE "Air Mail Special"
PERFORMER "Buddy DeFranco"
INDEX 01 00:00:00
FILE "04 - More Than You Know.wav" WAVE
TRACK 04 AUDIO
TITLE "More Than You Know"
PERFORMER "Buddy DeFranco"
INDEX 01 00:00:00
FILE "05 - Wholly Cats.wav" WAVE
TRACK 05 AUDIO
TITLE "Wholly Cats"
PERFORMER "Buddy DeFranco"
INDEX 01 00:00:00
FILE "06 - Goodbye.wav" WAVE
TRACK 06 AUDIO
TITLE "Goodbye"
PERFORMER "Buddy DeFranco"
INDEX 01 00:00:00
FILE "07 - Seven Come Eleven.wav" WAVE
TRACK 07 AUDIO
TITLE "Seven Come Eleven"
PERFORMER "Buddy DeFranco"
INDEX 01 00:00:00
FILE "08 - My Blue Heaven.wav" WAVE
TRACK 08 AUDIO
TITLE "My Blue Heaven"
PERFORMER "Buddy DeFranco"
INDEX 01 00:00:00
FILE "09 - Stardust.wav" WAVE
TRACK 09 AUDIO
TITLE "Stardust"
PERFORMER "Buddy DeFranco"
INDEX 01 00:00:00
FILE "10 - Cross Your Heart.wav" WAVE
TRACK 10 AUDIO
TITLE "Cross Your Heart"
PERFORMER "Buddy DeFranco"
INDEX 01 00:00:00
FILE "11 - Frenesi.wav" WAVE
TRACK 11 AUDIO
TITLE "Frenesi"
PERFORMER "Buddy DeFranco"
INDEX 01 00:00:00
FILE "12 - Medley- Dancing In The Dark , Moonglow , Time On My Hands.wav" WAVE
TRACK 12 AUDIO
TITLE "Medley: Dancing In The Dark / Moonglow / Time On My Hands"
PERFORMER "Buddy DeFranco"
INDEX 01 00:00:00
FILE "13 - Indian Love Call.wav" WAVE
TRACK 13 AUDIO
TITLE "Indian Love Call"
PERFORMER "Buddy DeFranco"
INDEX 01 00:00:00
FILE "14 - Summit Ridge Drive.wav" WAVE
TRACK 14 AUDIO
TITLE "Summit Ridge Drive"
PERFORMER "Buddy DeFranco"
INDEX 01 00:00:00

Лог проверки качества

-----------------------
DON'T MODIFY THIS FILE
-----------------------
PERFORMER: auCDtect Task Manager, ver. 1.6.0 RC1 build 1.6.0.1
Copyright (c) 2008-2010 y-soft. All rights reserved
http://y-soft.org
ANALYZER: auCDtect: CD records authenticity detector, version 0.8.2
Copyright (c) 2004 Oleg Berngardt. All rights reserved.
Copyright (c) 2004 Alexander Djourik. All rights reserved.
FILE: 14 - Summit Ridge Drive.flac
Size: 25798157 Hash: BD9A1503B8766067808A37F5B26EFF35 Accuracy: -m0
Conclusion: CDDA 99%
Signature: 6EA463F5293203ECE1FFB3DBCFD7579B9715666E
FILE: 13 - Indian Love Call.flac
Size: 20337661 Hash: 1942266D9D04BB70D642B020D8E72D5A Accuracy: -m0
Conclusion: CDDA 100%
Signature: 02B445FFB6EE050DA06894CC75927A5B74CC959A
FILE: 12 - Medley- Dancing In The Dark , Moonglow , Time On My Hands.flac
Size: 19489848 Hash: 041B7C49D29522328BD96B39866DCD77 Accuracy: -m0
Conclusion: CDDA 100%
Signature: 316AB1D29AEDC75203D172866828AD9E4FC870A2
FILE: 11 - Frenesi.flac
Size: 29269444 Hash: F1C23C14AB1719F1F1837735A9170C77 Accuracy: -m0
Conclusion: CDDA 100%
Signature: 3ADFC1D0CCFF638479DBA0EFE50DEBF55839424C
FILE: 10 - Cross Your Heart.flac
Size: 29615518 Hash: C5367C016F54F9F75C9BD89E506C0161 Accuracy: -m0
Conclusion: CDDA 99%
Signature: 96B41802D1B283FE811132442820571707664536
FILE: 09 - Stardust.flac
Size: 23126592 Hash: 356994703AC4161B8F00545C347F38D0 Accuracy: -m0
Conclusion: CDDA 100%
Signature: 197BF64ABDD0EDDA2CC3946E6D1A6A333E2BC8B7
FILE: 08 - My Blue Heaven.flac
Size: 22448601 Hash: 0A40C144249A6BC814C9173265AC8269 Accuracy: -m0
Conclusion: CDDA 100%
Signature: 151A03F3EA21390C263C101F29070021FF1F386E
FILE: 07 - Seven Come Eleven.flac
Size: 14828734 Hash: 0DFECD072262CC3B8B524DB5F5C52F5D Accuracy: -m0
Conclusion: CDDA 100%
Signature: C16E2535E8F59249A770576ADA0DF1A5EC8799C1
FILE: 06 - Goodbye.flac
Size: 6491754 Hash: 06E62EFECC4F28CA3E1A2F6A737C5B51 Accuracy: -m0
Conclusion: CDDA 100%
Signature: 41132DBD78D615F14DA8F71BBF5A93A425545499
FILE: 05 - Wholly Cats.flac
Size: 36594129 Hash: 6F0252A69D15BACD6232F53008447051 Accuracy: -m0
Conclusion: CDDA 100%
Signature: CE6995E6B054F41E02731813182FC4AC287B6885
FILE: 04 - More Than You Know.flac
Size: 13260392 Hash: B5D407D3D03CA339A59322C2F40C9EE2 Accuracy: -m0
Conclusion: CDDA 100%
Signature: 311F11C3FB9D2FF86A1C2D55AD1632EB3804BD91
FILE: 03 - Air Mail Special.flac
Size: 15386168 Hash: F77C64F6A80A7FFAD27F0149E3C8C526 Accuracy: -m0
Conclusion: CDDA 100%
Signature: 2EE73606F14DA6876A1B678072B736B5116527DA
FILE: 02 - A Smooth One.flac
Size: 17623182 Hash: 296462097D1D0249B6DD6D2269308EDD Accuracy: -m0
Conclusion: CDDA 100%
Signature: B945AD30B07CF227A51C6296A16F7B56D6802DC3
FILE: 01 - Benny's Bugle.flac
Size: 19490471 Hash: BE196211AD1BB01E0DFB0A0315A416F8 Accuracy: -m0
Conclusion: CDDA 100%
Signature: 787994614C36231389956D925034EAE672E127D4

Замер динамического диапазона

foobar2000 1.3.10 / Замер динамического диапазона (DR) 1.1.1
Дата отчёта: 2017-06-07 13:12:34
--------------------------------------------------------------------------------
Анализ: Buddy DeFranco / Wholly Cats
--------------------------------------------------------------------------------
DR Пики RMS Продолжительность трека
--------------------------------------------------------------------------------
DR11 0.00 дБ -12.68 дБ 5:56 01-Benny's Bugle
DR11 -1.06 дБ -14.74 дБ 6:40 02-A Smooth One
DR12 -0.42 дБ -13.78 дБ 4:38 03-Air Mail Special
DR11 -0.76 дБ -15.96 дБ 5:24 04-More Than You Know
DR11 0.00 дБ -13.38 дБ 11:49 05-Wholly Cats
DR11 -1.07 дБ -15.15 дБ 2:28 06-Goodbye
DR11 -0.74 дБ -13.29 дБ 4:45 07-Seven Come Eleven
DR12 -0.91 дБ -15.89 дБ 3:55 08-My Blue Heaven
DR12 -0.37 дБ -16.30 дБ 4:45 09-Stardust
DR11 0.00 дБ -13.88 дБ 4:49 10-Cross Your Heart
DR11 0.00 дБ -13.68 дБ 5:09 11-Frenesi
DR9 -0.31 дБ -13.75 дБ 3:32 12-Medley: Dancing In The Dark / Moonglow / Time On My Hands
DR11 -0.08 дБ -13.70 дБ 3:32 13-Indian Love Call
DR11 -0.54 дБ -13.81 дБ 4:31 14-Summit Ridge Drive
--------------------------------------------------------------------------------
Количество треков: 14
Реальные значения DR: DR11
Частота: 44100 Гц
Каналов: 2
Разрядность: 16
Битрейт: 760 кбит/с
Кодек: FLAC
================================================================================
-

Back

About

This release and its companion volume include the complete original LPs: I Hear Benny Goodman & Artie Shaw, Buddy De Franco plays Benny Goodman, Buddy De Franco plays Artie Shaw, Wholly Cats and Closed Session.
Buddy DeFranco plays tunes associated with Benny Goodman and Artie Shaw – but in a completely different way than before – with a wider-open swing for the 50s! The work here is all small combo, not big band – and there's a free-flowing groove that's totally great – a sound that carries echoes of the earlier years, but which comes across with that modern inflection to swing that made Buddy's years at Verve so great. Few players could come up with a balance of modes as great as this – and on the 2 sessions in the set, DeFranco's clarinet is caught alongside trumpet from either Don Fagerquist or Ray Linn, tenor from Georgie Auld, vibes from Victor Feldman, piano from Paul Smith or Carl Perkins, guitar from Barney Kessell or Howard Roberts, bass from Leroy Vinnegar or Joe Mondragon, and drums from Stan Levey or Milt Holland. First volume features 14 titles that include "Benny's Bugle", "A Smooth One", "Air Mail Special", "My Blue Heaven", "Seven Come Eleven", "Cross Your Heart", "Frenesi", "Indian Love Call", "Summit Ridge Drive", and "Stardust".

Состав

BUDDY DE FRANCO, CLARINET ON ALL TRACKS, PLUS:
1-7: Don Fagerquist (tp), Georgie Auld (ts), Victor Feldman (vib), Carl Perkins (p), Barney Kessel (g), Leroy Vinnegar (b), Stan Levey (d)
Los Angeles, October 29,1957.
8-14: Ray Linn (tp), Paul Smith (p, harpsichord), Barney Kessel (g on 8-11), Howard Roberts (g on 12-14), Joe Mondragon (b), Milt Holland (d).
Los Angeles, October 31,1957.
Although most current discographies deny it, original issues note the presence of pianist Irving Garner on some of these tracks.
-

If you like the topic, please click share to help develop our site.

To download the file disable ad blocking, and reload the page.

disable adblock How to disable ad blocking?

Download by magnet link 489 MB Download Torrent

Login using:

Similar topics



   
Current time is: 25-May 18:43 :: All times are UTC + 3