-Buddy DeFranco - I Hear Benny Goodman & Artie Shaw Sessions Vol. 2 - 1957 (2007)- Жанр: Swing
Носитель: CD
Страна-производитель диска (релиза): EU
Год издания оригинала: 1957
Год переиздания: 2007
Издатель (лейбл): Lone Hill Jazz
Номер по каталогу: LHJ10281
Страна исполнителя (группы) : USA
Аудио кодек: FLAC (*.flac)
Тип рипа: (tracks + .cue)
Битрейт аудио: lossless
Наличие сканов в содержимом раздачи: full scans
Продолжительность: 1:40:37
Источник (релизер): anonimous uploader from waffles

CD1

1. Don't Be Th at Way
2. After You've Gone
3. Th e Sheik of Araby
4. Flying Home
5. Soft Winds
6. Medley: Sweet Lorraine / Body and Soul / Memories of You
7. Limehouse Blues
8. Medley: Poor Butterfly / Where or When / These Foolish Things
9. Rose Room
10. Oh, Lady Be Good.

Лог создания рипа (14. March 2015)

Exact Audio Copy V0.99 prebeta 5 from 4. May 2009
EAC extraction logfile from 14. March 2015, 18:20
Buddy DeFranco / I Hear Benny Goodman & Artie Shaw (CD1)
Used drive : PLEXTOR DVDR PX-L890SA Adapter: 6 ID: 0
Read mode : Secure
Utilize accurate stream : Yes
Defeat audio cache : Yes
Make use of C2 pointers : No
Read offset correction : 6
Overread into Lead-In and Lead-Out : No
Fill up missing offset samples with silence : Yes
Delete leading and trailing silent blocks : No
Null samples used in CRC calculations : Yes
Used interface : Native Win32 interface for Win NT & 2000
Gap handling : Appended to previous track
Used output format : User Defined Encoder
Selected bitrate : 1024 kBit/s
Quality : High
Add ID3 tag : No
Command line compressor : C:\Program Files (x86)\FLAC Frontend\tools\flac.exe
Additional command line options : -8 -V -T "ARTIST=%a" -T "TITLE=%t" -T "ALBUM=%g" -T "DATE=%y" -T "TRACKNUMBER=%n" -T "GENRE=%m" -T "COMMENT=EAC FLAC -8" %s
TOC of the extracted CD
Track | Start | Length | Start sector | End sector
---------------------------------------------------------
1 | 0:00.00 | 3:16.09 | 0 | 14708
2 | 3:16.09 | 3:31.27 | 14709 | 30560
3 | 6:47.36 | 4:50.70 | 30561 | 52380
4 | 11:38.31 | 7:51.46 | 52381 | 87751
5 | 19:30.02 | 5:40.05 | 87752 | 113256
6 | 25:10.07 | 5:59.37 | 113257 | 140218
7 | 31:09.44 | 4:52.72 | 140219 | 162190
8 | 36:02.41 | 5:53.23 | 162191 | 188688
9 | 41:55.64 | 3:58.10 | 188689 | 206548
10 | 45:53.74 | 7:44.42 | 206549 | 241390
Track 1
Filename D:\Buddy DeFranco - I Hear Benny Goodman & Artie Shaw (1957) [2CD] {2007 Lone Hill Jazz Remaster}\CD1\01 - Don't Be That Way.wav
Pre-gap length 0:00:02.00
Peak level 89.7 %
Track quality 100.0 %
Test CRC DD796FF0
Copy CRC DD796FF0
Accurately ripped (confidence 1) [131D1A80]
Copy OK
Track 2
Filename D:\Buddy DeFranco - I Hear Benny Goodman & Artie Shaw (1957) [2CD] {2007 Lone Hill Jazz Remaster}\CD1\02 - After You're Gone.wav
Peak level 97.6 %
Track quality 100.0 %
Test CRC 55AB3B94
Copy CRC 55AB3B94
Accurately ripped (confidence 1) [64209838]
Copy OK
Track 3
Filename D:\Buddy DeFranco - I Hear Benny Goodman & Artie Shaw (1957) [2CD] {2007 Lone Hill Jazz Remaster}\CD1\03 - The Sheik Of Araby.wav
Peak level 79.1 %
Track quality 100.0 %
Test CRC E9D4AA5F
Copy CRC E9D4AA5F
Accurately ripped (confidence 1) [E8D40AB0]
Copy OK
Track 4
Filename D:\Buddy DeFranco - I Hear Benny Goodman & Artie Shaw (1957) [2CD] {2007 Lone Hill Jazz Remaster}\CD1\04 - Flying Home.wav
Peak level 93.8 %
Track quality 100.0 %
Test CRC 947723FD
Copy CRC 947723FD
Accurately ripped (confidence 1) [B702C879]
Copy OK
Track 5
Filename D:\Buddy DeFranco - I Hear Benny Goodman & Artie Shaw (1957) [2CD] {2007 Lone Hill Jazz Remaster}\CD1\05 - Soft Winds.wav
Peak level 99.2 %
Track quality 100.0 %
Test CRC AB7189E0
Copy CRC AB7189E0
Accurately ripped (confidence 1) [B3885729]
Copy OK
Track 6
Filename D:\Buddy DeFranco - I Hear Benny Goodman & Artie Shaw (1957) [2CD] {2007 Lone Hill Jazz Remaster}\CD1\06 - Medley- Sweet Lorraine , Body And Soul , Memories Of You.wav
Peak level 96.7 %
Track quality 100.0 %
Test CRC BC09D3B9
Copy CRC BC09D3B9
Accurately ripped (confidence 1) [08396F2A]
Copy OK
Track 7
Filename D:\Buddy DeFranco - I Hear Benny Goodman & Artie Shaw (1957) [2CD] {2007 Lone Hill Jazz Remaster}\CD1\07 - Limehouse Blues.wav
Peak level 91.7 %
Track quality 100.0 %
Test CRC AADFFAF2
Copy CRC AADFFAF2
Accurately ripped (confidence 1) [33BA73ED]
Copy OK
Track 8
Filename D:\Buddy DeFranco - I Hear Benny Goodman & Artie Shaw (1957) [2CD] {2007 Lone Hill Jazz Remaster}\CD1\08 - Medley- Poor Butterly , Where Or When , These Foolish Things.wav
Peak level 90.6 %
Track quality 99.9 %
Test CRC 6F779317
Copy CRC 6F779317
Accurately ripped (confidence 1) [87A65939]
Copy OK
Track 9
Filename D:\Buddy DeFranco - I Hear Benny Goodman & Artie Shaw (1957) [2CD] {2007 Lone Hill Jazz Remaster}\CD1\09 - Rose Room.wav
Peak level 96.4 %
Track quality 100.0 %
Test CRC D373F9FB
Copy CRC D373F9FB
Accurately ripped (confidence 1) [12B55DDF]
Copy OK
Track 10
Filename D:\Buddy DeFranco - I Hear Benny Goodman & Artie Shaw (1957) [2CD] {2007 Lone Hill Jazz Remaster}\CD1\10 - Oh, Lady Be Good.wav
Peak level 89.7 %
Track quality 99.9 %
Test CRC AFC23EF3
Copy CRC AFC23EF3
Cannot be verified as accurate (confidence 2) [893C7F7B], AccurateRip returned [85DD0CAD]
Copy OK
9 track(s) accurately ripped
1 track(s) could not be verified as accurate
Some tracks could not be verified as accurate
No errors occurred
End of status report

Содержание индексной карты (.CUE):

REM GENRE Jazz
REM DATE 1957
REM DISCID 7C0C920A
REM COMMENT "ExactAudioCopy v0.99pb5"
PERFORMER "Buddy DeFranco"
TITLE "I Hear Benny Goodman & Artie Shaw (CD1)"
FILE "01 - Don't Be That Way.wav" WAVE
TRACK 01 AUDIO
TITLE "Don't Be That Way"
PERFORMER "Buddy DeFranco"
INDEX 01 00:00:00
FILE "02 - After You're Gone.wav" WAVE
TRACK 02 AUDIO
TITLE "After You're Gone"
PERFORMER "Buddy DeFranco"
INDEX 01 00:00:00
FILE "03 - The Sheik Of Araby.wav" WAVE
TRACK 03 AUDIO
TITLE "The Sheik Of Araby"
PERFORMER "Buddy DeFranco"
INDEX 01 00:00:00
FILE "04 - Flying Home.wav" WAVE
TRACK 04 AUDIO
TITLE "Flying Home"
PERFORMER "Buddy DeFranco"
INDEX 01 00:00:00
FILE "05 - Soft Winds.wav" WAVE
TRACK 05 AUDIO
TITLE "Soft Winds"
PERFORMER "Buddy DeFranco"
INDEX 01 00:00:00
FILE "06 - Medley- Sweet Lorraine , Body And Soul , Memories Of You.wav" WAVE
TRACK 06 AUDIO
TITLE "Medley: Sweet Lorraine / Body And Soul / Memories Of You"
PERFORMER "Buddy DeFranco"
INDEX 01 00:00:00
FILE "07 - Limehouse Blues.wav" WAVE
TRACK 07 AUDIO
TITLE "Limehouse Blues"
PERFORMER "Buddy DeFranco"
INDEX 01 00:00:00
FILE "08 - Medley- Poor Butterly , Where Or When , These Foolish Things.wav" WAVE
TRACK 08 AUDIO
TITLE "Medley: Poor Butterly / Where Or When / These Foolish Things"
PERFORMER "Buddy DeFranco"
INDEX 01 00:00:00
FILE "09 - Rose Room.wav" WAVE
TRACK 09 AUDIO
TITLE "Rose Room"
PERFORMER "Buddy DeFranco"
INDEX 01 00:00:00
FILE "10 - Oh, Lady Be Good.wav" WAVE
TRACK 10 AUDIO
TITLE "Oh, Lady Be Good"
PERFORMER "Buddy DeFranco"
INDEX 01 00:00:00

Лог проверки качества

-----------------------
DON'T MODIFY THIS FILE
-----------------------
PERFORMER: auCDtect Task Manager, ver. 1.6.0 RC1 build 1.6.0.1
Copyright (c) 2008-2010 y-soft. All rights reserved
http://y-soft.org
ANALYZER: auCDtect: CD records authenticity detector, version 0.8.2
Copyright (c) 2004 Oleg Berngardt. All rights reserved.
Copyright (c) 2004 Alexander Djourik. All rights reserved.
FILE: 10 - Oh, Lady Be Good.flac
Size: 22407282 Hash: 8F1F87F2E4689BE0D0DBC7C23BDEE5E0 Accuracy: -m0
Conclusion: CDDA 100%
Signature: EC469B061B26DAE2B2A5812503B21037D168BE23
FILE: 09 - Rose Room.flac
Size: 12584770 Hash: C35FD64F6C39B50DF4FF61A15B97E718 Accuracy: -m0
Conclusion: CDDA 100%
Signature: E9A9642ECAA5B07CEC33DB04B4A589416AEB1B0C
FILE: 08 - Medley- Poor Butterly , Where Or When , These Foolish Things.flac
Size: 27942825 Hash: 5687C541AB087EF4663D2977C649B75E Accuracy: -m0
Conclusion: CDDA 100%
Signature: 5C69431961F6C340D58212CB0061BA68951A2174
FILE: 07 - Limehouse Blues.flac
Size: 27656079 Hash: A032AAFAD3E35F4DD770586BE3BAA6CA Accuracy: -m0
Conclusion: CDDA 100%
Signature: 2D6828811D5654CB76D6AFAED7E6E08AF9883AD3
FILE: 06 - Medley- Sweet Lorraine , Body And Soul , Memories Of You.flac
Size: 16021348 Hash: 4C7A2C513F222C620E85C6A8745EDD49 Accuracy: -m0
Conclusion: CDDA 100%
Signature: 3AAE8669017AC472BE82502C6AFDD929B9AAA46F
FILE: 05 - Soft Winds.flac
Size: 17334661 Hash: 55927DE303443D739A57A69B931985AE Accuracy: -m0
Conclusion: CDDA 100%
Signature: 2D16AA35269AF1CAFBE83CC1F569BA0EA407BE29
FILE: 04 - Flying Home.flac
Size: 26146309 Hash: 0430EE6395B95A2196EA0846975E7897 Accuracy: -m0
Conclusion: CDDA 100%
Signature: 3DC19CF6E6656110AB4EB230984DAEAFB2D49A97
FILE: 03 - The Sheik Of Araby.flac
Size: 15387307 Hash: 45EFDD53A4916640A16A2A4730E43319 Accuracy: -m0
Conclusion: CDDA 100%
Signature: 7BB2325663A2DA3696DF0FD9B059A654389B139D
FILE: 02 - After You're Gone.flac
Size: 20642923 Hash: 00362C79802147A77EF0233C191201DB Accuracy: -m0
Conclusion: CDDA 100%
Signature: 0301D4524F86DAF9394CAFA036D33DE2D3E6061C
FILE: 01 - Don't Be That Way.flac
Size: 19033945 Hash: 1F465CC8762E62E9DE355AAEDF1F608F Accuracy: -m0
Conclusion: CDDA 100%
Signature: 731947A5A1CDEF139E31D176D4CEEF31466A1687

Замер динамического диапазона

foobar2000 1.3.10 / Замер динамического диапазона (DR) 1.1.1
Дата отчёта: 2017-06-06 16:26:06
--------------------------------------------------------------------------------
Анализ: Buddy DeFranco / I Hear Benny Goodman & Artie Shaw (CD1)
--------------------------------------------------------------------------------
DR Пики RMS Продолжительность трека
--------------------------------------------------------------------------------
DR11 -0.94 дБ -14.78 дБ 3:16 01-Don't Be That Way
DR12 -0.21 дБ -15.54 дБ 3:31 02-After You're Gone
DR12 -2.03 дБ -16.72 дБ 4:51 03-The Sheik Of Araby
DR12 -0.55 дБ -16.79 дБ 7:52 04-Flying Home
DR13 -0.07 дБ -17.08 дБ 5:40 05-Soft Winds
DR12 -0.28 дБ -16.63 дБ 5:59 06-Medley: Sweet Lorraine / Body And Soul / Memories Of You
DR12 -0.75 дБ -15.86 дБ 4:53 07-Limehouse Blues
DR13 -0.85 дБ -17.87 дБ 5:53 08-Medley: Poor Butterly / Where Or When / These Foolish Things
DR12 -0.32 дБ -14.05 дБ 3:58 09-Rose Room
DR13 -0.94 дБ -17.16 дБ 7:45 10-Oh, Lady Be Good
--------------------------------------------------------------------------------
Количество треков: 10
Реальные значения DR: DR12
Частота: 44100 Гц
Каналов: 2
Разрядность: 16
Битрейт: 386 кбит/с
Кодек: FLAC
================================================================================

CD2

1. 'S Wonderful
2. My Heart Stood Still
3. Temptation
4. Night and Day
5. Keepin' Myself for You
6. Medley: It Could Happen to You / I Cover the Waterfront / Someone to Watch Over Me
7. Concerto for Clarinet
8. All the Th ings You Are
9. Softly as in a Morning Sunrise
10. Smoke Gets in Your Eyes
11. I Surrender, Dear
12. Tin Reed Blues*

Лог создания рипа (14. March 2015)

Exact Audio Copy V0.99 prebeta 5 from 4. May 2009
EAC extraction logfile from 14. March 2015, 19:30
Buddy DeFranco / I Hear Benny Goodman & Artie Shaw (CD2)
Used drive : PLEXTOR DVDR PX-L890SA Adapter: 6 ID: 0
Read mode : Secure
Utilize accurate stream : Yes
Defeat audio cache : Yes
Make use of C2 pointers : No
Read offset correction : 6
Overread into Lead-In and Lead-Out : No
Fill up missing offset samples with silence : Yes
Delete leading and trailing silent blocks : No
Null samples used in CRC calculations : Yes
Used interface : Native Win32 interface for Win NT & 2000
Gap handling : Appended to previous track
Used output format : User Defined Encoder
Selected bitrate : 1024 kBit/s
Quality : High
Add ID3 tag : No
Command line compressor : C:\Program Files (x86)\FLAC Frontend\tools\flac.exe
Additional command line options : -8 -V -T "ARTIST=%a" -T "TITLE=%t" -T "ALBUM=%g" -T "DATE=%y" -T "TRACKNUMBER=%n" -T "GENRE=%m" -T "COMMENT=EAC FLAC -8" %s
TOC of the extracted CD
Track | Start | Length | Start sector | End sector
---------------------------------------------------------
1 | 0:00.00 | 4:05.59 | 0 | 18433
2 | 4:05.59 | 4:09.50 | 18434 | 37158
3 | 8:15.34 | 2:32.27 | 37159 | 48585
4 | 10:47.61 | 3:43.30 | 48586 | 65340
5 | 14:31.16 | 2:44.50 | 65341 | 77690
6 | 17:15.66 | 5:38.15 | 77691 | 103055
7 | 22:54.06 | 7:00.09 | 103056 | 134564
8 | 29:54.15 | 3:45.56 | 134565 | 151495
9 | 33:39.71 | 5:01.47 | 151496 | 174117
10 | 38:41.43 | 3:24.02 | 174118 | 189419
11 | 42:05.45 | 3:27.00 | 189420 | 204944
12 | 45:32.45 | 7:04.52 | 204945 | 236796
Track 1
Filename D:\Buddy DeFranco - I Hear Benny Goodman & Artie Shaw (1957) [2CD] {2007 Lone Hill Jazz Remaster}\CD2\01 - S' Wonderful.wav
Pre-gap length 0:00:02.00
Peak level 97.0 %
Track quality 100.0 %
Test CRC 7509BAAB
Copy CRC 7509BAAB
Cannot be verified as accurate (confidence 2) [5F497869], AccurateRip returned [C9420320]
Copy OK
Track 2
Filename D:\Buddy DeFranco - I Hear Benny Goodman & Artie Shaw (1957) [2CD] {2007 Lone Hill Jazz Remaster}\CD2\02 - My Heart Stood Still.wav
Peak level 93.5 %
Track quality 100.0 %
Test CRC FA393853
Copy CRC FA393853
Cannot be verified as accurate (confidence 2) [12F15D76], AccurateRip returned [213C4EB6]
Copy OK
Track 3
Filename D:\Buddy DeFranco - I Hear Benny Goodman & Artie Shaw (1957) [2CD] {2007 Lone Hill Jazz Remaster}\CD2\03 - Temptation.wav
Peak level 76.4 %
Track quality 100.0 %
Test CRC EAE7EC0F
Copy CRC EAE7EC0F
Cannot be verified as accurate (confidence 2) [7A1FBF7A], AccurateRip returned [0885CC2E]
Copy OK
Track 4
Filename D:\Buddy DeFranco - I Hear Benny Goodman & Artie Shaw (1957) [2CD] {2007 Lone Hill Jazz Remaster}\CD2\04 - Night And Day.wav
Peak level 100.0 %
Track quality 100.0 %
Test CRC A6B56BFF
Copy CRC A6B56BFF
Cannot be verified as accurate (confidence 2) [514E610F], AccurateRip returned [867776D2]
Copy OK
Track 5
Filename D:\Buddy DeFranco - I Hear Benny Goodman & Artie Shaw (1957) [2CD] {2007 Lone Hill Jazz Remaster}\CD2\05 - Keepin' Myself For You.wav
Peak level 77.1 %
Track quality 100.0 %
Test CRC 4BB06B13
Copy CRC 4BB06B13
Cannot be verified as accurate (confidence 2) [58179675], AccurateRip returned [B2766F1D]
Copy OK
Track 6
Filename D:\Buddy DeFranco - I Hear Benny Goodman & Artie Shaw (1957) [2CD] {2007 Lone Hill Jazz Remaster}\CD2\06 - Medley- It Could Happen To You , I Cover The Waterfront , Someone To Watch Over Me.wav
Peak level 100.0 %
Track quality 100.0 %
Test CRC 093F5650
Copy CRC 093F5650
Cannot be verified as accurate (confidence 2) [687B8138], AccurateRip returned [536832E4]
Copy OK
Track 7
Filename D:\Buddy DeFranco - I Hear Benny Goodman & Artie Shaw (1957) [2CD] {2007 Lone Hill Jazz Remaster}\CD2\07 - Concerto For Clarinet.wav
Peak level 100.0 %
Track quality 100.0 %
Test CRC 8CDE8DF1
Copy CRC 8CDE8DF1
Cannot be verified as accurate (confidence 2) [267A2FAE], AccurateRip returned [77264360]
Copy OK
Track 8
Filename D:\Buddy DeFranco - I Hear Benny Goodman & Artie Shaw (1957) [2CD] {2007 Lone Hill Jazz Remaster}\CD2\08 - All The Things You Are.wav
Peak level 90.0 %
Track quality 100.0 %
Test CRC 1E23D52F
Copy CRC 1E23D52F
Cannot be verified as accurate (confidence 2) [A792E603], AccurateRip returned [11FD310B]
Copy OK
Track 9
Filename D:\Buddy DeFranco - I Hear Benny Goodman & Artie Shaw (1957) [2CD] {2007 Lone Hill Jazz Remaster}\CD2\09 - Softly As In A Morning Sunrise.wav
Peak level 85.0 %
Track quality 100.0 %
Test CRC 31D89A9D
Copy CRC 31D89A9D
Cannot be verified as accurate (confidence 2) [F295B266], AccurateRip returned [B0C7D706]
Copy OK
Track 10
Filename D:\Buddy DeFranco - I Hear Benny Goodman & Artie Shaw (1957) [2CD] {2007 Lone Hill Jazz Remaster}\CD2\10 - Smoke Gets In Your Eyes.wav
Peak level 92.2 %
Track quality 100.0 %
Test CRC 760512D4
Copy CRC 760512D4
Cannot be verified as accurate (confidence 2) [8B47AD09], AccurateRip returned [06C80767]
Copy OK
Track 11
Filename D:\Buddy DeFranco - I Hear Benny Goodman & Artie Shaw (1957) [2CD] {2007 Lone Hill Jazz Remaster}\CD2\11 - I Surrender, Dear.wav
Peak level 85.4 %
Track quality 100.0 %
Test CRC 03A4272C
Copy CRC 03A4272C
Cannot be verified as accurate (confidence 2) [8EB832CD], AccurateRip returned [FFFD6645]
Copy OK
Track 12
Filename D:\Buddy DeFranco - I Hear Benny Goodman & Artie Shaw (1957) [2CD] {2007 Lone Hill Jazz Remaster}\CD2\12 - Tin Reed Blues.wav
Peak level 99.1 %
Track quality 100.0 %
Test CRC 72D460DA
Copy CRC 72D460DA
Cannot be verified as accurate (confidence 2) [21C103F3], AccurateRip returned [2EC1D4C0]
Copy OK
No tracks could be verified as accurate
You may have a different pressing from the one(s) in the database
No errors occurred
End of status report

Содержание индексной карты (.CUE):

REM GENRE Jazz
REM DATE 1957
REM DISCID AA0C550C
REM COMMENT "ExactAudioCopy v0.99pb5"
PERFORMER "Buddy DeFranco"
TITLE "I Hear Benny Goodman & Artie Shaw (CD2)"
FILE "01 - S' Wonderful.wav" WAVE
TRACK 01 AUDIO
TITLE "S' Wonderful"
PERFORMER "Buddy DeFranco"
INDEX 01 00:00:00
FILE "02 - My Heart Stood Still.wav" WAVE
TRACK 02 AUDIO
TITLE "My Heart Stood Still"
PERFORMER "Buddy DeFranco"
INDEX 01 00:00:00
FILE "03 - Temptation.wav" WAVE
TRACK 03 AUDIO
TITLE "Temptation"
PERFORMER "Buddy DeFranco"
INDEX 01 00:00:00
FILE "04 - Night And Day.wav" WAVE
TRACK 04 AUDIO
TITLE "Night And Day"
PERFORMER "Buddy DeFranco"
INDEX 01 00:00:00
FILE "05 - Keepin' Myself For You.wav" WAVE
TRACK 05 AUDIO
TITLE "Keepin' Myself For You"
PERFORMER "Buddy DeFranco"
INDEX 01 00:00:00
FILE "06 - Medley- It Could Happen To You.wav" WAVE
TRACK 06 AUDIO
TITLE "Medley: It Could Happen To You / I Cover The Waterfront / Someone To Watch Ov..."
PERFORMER "Buddy DeFranco"
INDEX 01 00:00:00
FILE "07 - Concerto For Clarinet.wav" WAVE
TRACK 07 AUDIO
TITLE "Concerto For Clarinet"
PERFORMER "Buddy DeFranco"
INDEX 01 00:00:00
FILE "08 - All The Things You Are.wav" WAVE
TRACK 08 AUDIO
TITLE "All The Things You Are"
PERFORMER "Buddy DeFranco"
INDEX 01 00:00:00
FILE "09 - Softly As In A Morning Sunrise.wav" WAVE
TRACK 09 AUDIO
TITLE "Softly As In A Morning Sunrise"
PERFORMER "Buddy DeFranco"
INDEX 01 00:00:00
FILE "10 - Smoke Gets In Your Eyes.wav" WAVE
TRACK 10 AUDIO
TITLE "Smoke Gets In Your Eyes"
PERFORMER "Buddy DeFranco"
INDEX 01 00:00:00
FILE "11 - I Surrender, Dear.wav" WAVE
TRACK 11 AUDIO
TITLE "I Surrender, Dear"
PERFORMER "Buddy DeFranco"
INDEX 01 00:00:00
FILE "12 - Tin Reed Blues.wav" WAVE
TRACK 12 AUDIO
TITLE "Tin Reed Blues"
PERFORMER "Buddy DeFranco"
INDEX 01 00:00:00

Лог проверки качества

-----------------------
DON'T MODIFY THIS FILE
-----------------------
PERFORMER: auCDtect Task Manager, ver. 1.6.0 RC1 build 1.6.0.1
Copyright (c) 2008-2010 y-soft. All rights reserved
http://y-soft.org
ANALYZER: auCDtect: CD records authenticity detector, version 0.8.2
Copyright (c) 2004 Oleg Berngardt. All rights reserved.
Copyright (c) 2004 Alexander Djourik. All rights reserved.
FILE: 12 - Tin Reed Blues.flac
Size: 41019640 Hash: 004C742FF794549DD8297965F5FC73F5 Accuracy: -m0
Conclusion: CDDA 100%
Signature: ACB4D919833DEAAC8310BE392138987FE2F3CBF1
FILE: 11 - I Surrender, Dear.flac
Size: 9145893 Hash: 66B46D82BA4854C8A55842B7F6F0979B Accuracy: -m0
Conclusion: CDDA 100%
Signature: C8885CFDF3650D2F3C70A47FAF3C82BF3D9017A8
FILE: 10 - Smoke Gets In Your Eyes.flac
Size: 9296675 Hash: 156E6232E4E5806C09F76398C2F06344 Accuracy: -m0
Conclusion: CDDA 100%
Signature: 5633486F53F93C7526B1731DE60AE2079B3274F1
FILE: 09 - Softly As In A Morning Sunrise.flac
Size: 26384515 Hash: EB2744D0FC16ED75FA80482C8C6EA81B Accuracy: -m0
Conclusion: CDDA 100%
Signature: 394772205624595115298C71E773DB970912E084
FILE: 08 - All The Things You Are.flac
Size: 10008781 Hash: 17072E1DE515307437FE21FBC4AD96F6 Accuracy: -m0
Conclusion: CDDA 100%
Signature: B497B6F82FA7258AAB81F24916039DE17F5D7751
FILE: 07 - Concerto For Clarinet.flac
Size: 38629895 Hash: CAF103A4C4509C8885B5FE734036FFE8 Accuracy: -m0
Conclusion: CDDA 100%
Signature: 65CA4C51A28462B5CBAC4B79B4C6E15F17B289A9
FILE: 06 - Medley- It Could Happen To You.flac
Size: 27308473 Hash: A6B48503E8171E4E59717A4D6BB73906 Accuracy: -m0
Conclusion: CDDA 99%
Signature: 20B8BDF3FD49FDE9F4D4C0FF475AB135D4E77250
FILE: 05 - Keepin' Myself For You.flac
Size: 14182952 Hash: 440E49E63708A93A5A80EF766FFA750D Accuracy: -m0
Conclusion: CDDA 100%
Signature: 748933973A4EFCB57C6148274834343FD033DB9F
FILE: 04 - Night And Day.flac
Size: 10986705 Hash: 6E01A0F72912ACBB1EC0DC761D9020CF Accuracy: -m0
Conclusion: CDDA 100%
Signature: 77CA0AC0D29D932AF7959BDE63CD2206E0276EAF
FILE: 03 - Temptation.flac
Size: 12448681 Hash: 0BB20651B6A3BCD587246B6C1BD6D58C Accuracy: -m0
Conclusion: CDDA 100%
Signature: E2CE0BFE4646E7176702DDA2A56E4ADFEA1A43EB
FILE: 02 - My Heart Stood Still.flac
Size: 23387585 Hash: 5BA6A69F54E819C32ED15089B15A60E7 Accuracy: -m0
Conclusion: CDDA 99%
Signature: 489E5A9329C116FD2A9D3BD76E1A86216271E697
FILE: 01 - S' Wonderful.flac
Size: 22542465 Hash: 87938DCFFD80B23C47A9D5A1DBD888A6 Accuracy: -m0
Conclusion: CDDA 100%
Signature: DC8FF82849008ACCA5A4465C6FB01F892A359D87

Замер динамического диапазона

foobar2000 1.3.10 / Замер динамического диапазона (DR) 1.1.1
Дата отчёта: 2017-06-06 16:26:13
--------------------------------------------------------------------------------
Анализ: Buddy DeFranco / I Hear Benny Goodman & Artie Shaw (CD2)
--------------------------------------------------------------------------------
DR Пики RMS Продолжительность трека
--------------------------------------------------------------------------------
DR13 -0.26 дБ -16.80 дБ 4:06 01-S' Wonderful
DR11 -0.58 дБ -14.66 дБ 4:10 02-My Heart Stood Still
DR12 -2.34 дБ -18.52 дБ 2:32 03-Temptation
DR11 0.00 дБ -13.39 дБ 3:43 04-Night And Day
DR11 -2.25 дБ -15.16 дБ 2:45 05-Keepin' Myself For You
DR12 0.00 дБ -13.82 дБ 7:00 07-Concerto For Clarinet
DR10 -0.91 дБ -14.08 дБ 3:46 08-All The Things You Are
DR12 -1.41 дБ -16.65 дБ 5:02 09-Softly As In A Morning Sunrise
DR12 -0.70 дБ -14.75 дБ 3:24 10-Smoke Gets In Your Eyes
DR10 -1.36 дБ -15.34 дБ 3:27 11-I Surrender, Dear
DR12 -0.08 дБ -14.87 дБ 7:05 12-Tin Reed Blues
--------------------------------------------------------------------------------
Количество треков: 11
Реальные значения DR: DR11
Частота: 44100 Гц
Каналов: 2
Разрядность: 16
Битрейт: 773 кбит/с
Кодек: FLAC
================================================================================
-

Back

Об альбоме (сборнике):

5 complete LPs presented on 2 companion volumes! Featuring Carl Perkins, Jimmy Rowles, Barney Kessel and Don Fagerquist! Benny Goodman and Artie Shaw were among the most famous and beloved figures in swing music both as clarinet soloists and orchestra conductors. Th ey were still very active musically in 1957, when Buddy De Franco decided to record a series of sessions paying homage to them. Thirty-five performances were recorded (including four medleys containing three songs each) in four extended sessions made on four consecutive days and with two different groups (guitarist Barney Kessel, however, is present on most of the tracks). Th e fi rst two sessions included trumpeter Don Fagerquist, tenor saxophonist Georgie Auld and pianist Carl Perkins. T e second group includes trumpeter Ray Linn and another modern jazz pianist: Jimmy Rowles.
These two companion volumes include the complete LPs FOR THE FIRST TIME EVER ON CD!: "I Hear Benny Goodman & Artie Shaw", "Buddy De Franco plays Benny Goodman", "Buddy De Franco plays Artie Shaw", "Wholly Cats" and "Closed Session".

Состав

Personnel: BUDDY DE FRANCO, clarinet on all tracks, plus:
CD 1: Don Fagerquist (tp), Georgie Auld (ts), Victor Feldman (vb), Carl Perkins (p), Barney Kessel (g), Leroy Vinnegar (b), Stan Levey (d), Larry Bunker (vb) & Bob Neal (d) replace Victor Feldman and Stan Levey on tracks #9 and #10 only. Recorded in Los Angeles, October 30, 1957.
CD 2: Ray Linn (tp), Jimmy Rowles (p), Barney Kessel (g), Joe Mondragon (b), Milt Holland (d). Recorded in Los Angeles, November 1, 1957.
*Bonus track (from the album Live Date!): Herbie Mann (fl ), Bob Hardaway (saxes), Victor Feldman (vb), Pete Jolly (p), Barney Kessel (g), Scott LaFaro (b), Stan Levey (d). Recorded in Los Angeles, April 4, 1958.
-

If you like the topic, please click share to help develop our site.

To download the file disable ad blocking, and reload the page.

disable adblock How to disable ad blocking?

Download by magnet link 717 MB Download Torrent

Login using:

Similar topics



   
Current time is: 25-May 19:28 :: All times are UTC + 3