Информация о фильме
*Название: Операция 'Слон'
*Оригинальное название: Operation Dumbo Drop
*Год выхода: 1995
*Жанр: боевик, комедия, драма, приключения
*Режиссер: Саймон Уинсер
*В ролях: Дэнни Гловер, Рэй Лиотта, Денис Лири, Даг Э. Даг, Корин Немец,Чеки Карио, Хоанг Ли, Маршалл Белл
*Описание:
На долю военных выпало необычное задание: необходимо в строжайшей секретности доставить четыре тонны приколов и веселья размером со слона! Бывалый армейский капитан и невозмутимый офицер должны совершить самый крупный военный маневр в истории армии — тайно доставить взрослого слона в далекую и практически недоступную деревушку в джунглях. На земле, в воде или в воздухе неприятности и бедствия преследуют эту странную команду `крутых героев`. Но немного удачи… тонны весомых проблем… и они понимают, что невыполнимых заданий не бывает! Заразительно веселая и неподражаемая комедия `Операция `Слон` основана, как это не удивительно, на реальных фактах!

*Страна: США
*Производство: Walt Disney Pictures, Polygram Filmed Entertainment, Interscope Communications
*Продолжительность: 1:48:22
*Перевод: Профессиональный (многоголосый, закадровый), авторский (одноголосый, закадровый) А. Гаврилов
*Субтитры: Английские
Файл
*Качество: BDRip 720p
*Видео: AVC, 1280x544 (2.35:1), 23.976 fps, 4 762 Kbps (0.285 bit/pixel)
*Аудио #1: AC-3, 48.0 KHz, 2 ch, 192 Kbps, CBR (Russian) - профессиональный многоголосый (Первый канал, СТС, Disney Channel)
*Аудио #2: AC-3, 48.0 KHz, 2 ch, 192 Kbps, CBR (Russian) - профессиональный многоголосый (Видеосервис)
*Аудио #3: AC-3, 48.0 KHz, 2 ch, 192 Kbps, CBR (Russian) - авторский А.Гаврилов
*Аудио #4: AC-3, 48.0 KHz, 6 ch, 448 Kbps, CBR (English) - оригинальная звуковая дорожка
Релиз: &

x264

log:x264 [info]: profile High, level 4.1
x264 [info]: frame I:1294 Avg QP:15.88 size:121468 PSNR Mean Y:47.48 U:52.32 V:52.14 Avg:48.50 Global:48.07
x264 [info]: frame P:35915 Avg QP:18.39 size: 45283 PSNR Mean Y:44.87 U:51.15 V:50.19 Avg:45.98 Global:45.51
x264 [info]: frame B:118359 Avg QP:20.57 size: 17554 PSNR Mean Y:43.73 U:50.51 V:49.88 Avg:44.93 Global:44.42

MediaInfo:

Формат : Matroska
Версия формата : Version 2
Размер файла : 4,37 Гбайт
Продолжительность : 1 ч. 48 м.
Общий поток : 5776 Кбит/сек
Дата кодирования : UTC 2017-06-08 04:14:50
Программа кодирования : mkvmerge v5.3.0 ('I could have danced') built on Feb 9 2012 10:38:07
Библиотека кодирования : libebml v1.2.3 + libmatroska v1.3.0
Attachments : poster (12).jpg
Видео
Идентификатор : 1
Формат : AVC
Формат/Информация : Advanced Video Codec
Профиль формата : [email protected]
Параметр CABAC формата : Да
Параметр ReFrames формата : 12 кадров
Идентификатор кодека : V_MPEG4/ISO/AVC
Продолжительность : 1 ч. 48 м.
Битрейт : 4762 Кбит/сек
Ширина : 1280 пикселей
Высота : 544 пикселя
Соотношение сторон : 2,35:1
Режим частоты кадров : Постоянный
Частота кадров : 23,976 (24000/1001) кадра/сек
Цветовое пространство : YUV
Субдискретизация насыщенности : 4:2:0
Битовая глубина : 8 бит
Тип развёртки : Прогрессивная
Бит/(Пиксели*Кадры) : 0.285
Размер потока : 3,51 Гбайт (80%)
Библиотека кодирования : x264 core 146 r2538 121396c
Настройки программы : cabac=1 / ref=12 / deblock=1:-3:-3 / analyse=0x3:0x133 / me=umh / subme=11 / psy=1 / psy_rd=1.00:0.10 / mixed_ref=1 / me_range=32 / chroma_me=1 / trellis=2 / 8x8dct=1 / cqm=0 / deadzone=21,11 / fast_pskip=0 / chroma_qp_offset=-3 / threads=12 / lookahead_threads=3 / sliced_threads=0 / nr=0 / decimate=1 / interlaced=0 / bluray_compat=0 / constrained_intra=0 / bframes=10 / b_pyramid=2 / b_adapt=2 / b_bias=0 / direct=3 / weightb=1 / open_gop=0 / weightp=2 / keyint=240 / keyint_min=23 / scenecut=40 / intra_refresh=0 / rc=2pass / mbtree=0 / bitrate=4762 / ratetol=1.0 / qcomp=0.60 / qpmin=0 / qpmax=69 / qpstep=4 / cplxblur=20.0 / qblur=0.5 / ip_ratio=1.40 / pb_ratio=1.30 / aq=1:0.70
Язык : English
Default : Да
Forced : Нет
Аудио #1
Идентификатор : 2
Формат : AC-3
Формат/Информация : Audio Coding 3
Расширение режима : CM (complete main)
Параметр Endianness формата : Big
Идентификатор кодека : A_AC3
Продолжительность : 1 ч. 48 м.
Вид битрейта : Постоянный
Битрейт : 192 Кбит/сек
Каналы : 2 канала
Расположение каналов : Front: L R
Частота : 48,0 КГц
Частота кадров : 31,250 кадров/сек (1536 spf)
Битовая глубина : 16 бит
Метод сжатия : С потерями
Размер потока : 149 Мбайт (3%)
Заголовок : Профессиональный многоголосый (Первый канал СТС Disney Channel)
Язык : Russian
Default : Да
Forced : Нет
Аудио #2
Идентификатор : 3
Формат : AC-3
Формат/Информация : Audio Coding 3
Расширение режима : CM (complete main)
Параметр Endianness формата : Big
Идентификатор кодека : A_AC3
Продолжительность : 1 ч. 48 м.
Вид битрейта : Постоянный
Битрейт : 192 Кбит/сек
Каналы : 2 канала
Расположение каналов : Front: L R
Частота : 48,0 КГц
Частота кадров : 31,250 кадров/сек (1536 spf)
Битовая глубина : 16 бит
Метод сжатия : С потерями
Размер потока : 149 Мбайт (3%)
Заголовок : Профессиональный многоголосый (Видеосервис)
Язык : Russian
Default : Нет
Forced : Нет
Аудио #3
Идентификатор : 4
Формат : AC-3
Формат/Информация : Audio Coding 3
Расширение режима : CM (complete main)
Параметр Endianness формата : Big
Идентификатор кодека : A_AC3
Продолжительность : 1 ч. 48 м.
Вид битрейта : Постоянный
Битрейт : 192 Кбит/сек
Каналы : 2 канала
Расположение каналов : Front: L R
Частота : 48,0 КГц
Частота кадров : 31,250 кадров/сек (1536 spf)
Битовая глубина : 16 бит
Метод сжатия : С потерями
Размер потока : 149 Мбайт (3%)
Заголовок : Авторский А.Гаврилов
Язык : Russian
Default : Нет
Forced : Нет
Аудио #4
Идентификатор : 5
Формат : AC-3
Формат/Информация : Audio Coding 3
Расширение режима : CM (complete main)
Параметр Endianness формата : Big
Идентификатор кодека : A_AC3
Продолжительность : 1 ч. 48 м.
Вид битрейта : Постоянный
Битрейт : 448 Кбит/сек
Каналы : 6 каналов
Расположение каналов : Front: L C R, Side: L R, LFE
Частота : 48,0 КГц
Частота кадров : 31,250 кадров/сек (1536 spf)
Битовая глубина : 16 бит
Метод сжатия : С потерями
Размер потока : 347 Мбайт (8%)
Заголовок : Оригинальная звуковая дорожка
Язык : English
Default : Нет
Forced : Нет
Текст
Идентификатор : 6
Формат : UTF-8
Идентификатор кодека : S_TEXT/UTF8
Идентификатор кодека/Информация : UTF-8 Plain Text
Язык : English
Default : Да
Forced : Нет
Меню
00:00:00.000 : :Chapter 01
00:11:39.782 : :Chapter 02
00:16:32.824 : :Chapter 03
00:24:20.500 : :Chapter 04
00:30:04.928 : :Chapter 05
00:41:50.756 : :Chapter 06
00:51:20.077 : :Chapter 07
01:02:50.391 : :Chapter 08
01:09:05.305 : :Chapter 09
01:20:18.603 : :Chapter 10
01:23:00.305 : :Chapter 11
01:43:58.147 : :Chapter 12
01:48:07.564 : :Chapter 13
Скриншоты:

If you like the topic, please click share to help develop our site.

To download the file disable ad blocking, and reload the page.

disable adblock How to disable ad blocking?

Download by magnet link 4.37 GB Download Torrent

Login using:



   
Current time is: 27-May 02:10 :: All times are UTC + 3