Supermax - 20th Anniversary (2CD)
Страна: Austria
Жанр: Rock/Pop, Rock
Год выпуска: 1997
Формат: APE (image + .cue)
Битрейт аудио: lossless
Трэклист:

Supermax - 20th Anniversary 1997 CD1
YEAR: 1997 ID3G: 17

01. Don't stop the music African blood [0:08:15.21]
02. Lovemachine [0:08:10.40]
03. World of today [0:04:25.72]
04. Camillo [0:03:50.29]
05. Fly with me [0:03:51.47]
06. It ain't easy [0:04:23.58]
07. Long way to reach heaven [0:04:30.14]
08. Electricity [0:04:43.01]
09. Lovers night [0:05:43.69]
10. Love is deeper [0:03:51.58]
11. Bodyheat [0:08:01.55]
12. Max '96 [0:06:14.09]

20th Anniversary 1997 CD1

Exact Audio Copy V0.99 prebeta 4 from 23. January 2008
EAC extraction logfile from 28. April 2008, 18:34
Supermax / 20th Anniversary 1997 CD1
Used drive : TSSTcorpCDDVDW SH-S203B Adapter: 6 ID: 0
Read mode : Secure
Utilize accurate stream : Yes
Defeat audio cache : Yes
Make use of C2 pointers : No
Read offset correction : 6
Overread into Lead-In and Lead-Out : No
Fill up missing offset samples with silence : Yes
Delete leading and trailing silent blocks : No
Null samples used in CRC calculations : Yes
Used interface : Installed external ASPI interface
Used output format : Monkey's Audio Lossless Encoder
Selected bitrate : Fast Lossless Compression
Quality : High
Add ID3 tag : No
Command line compressor : C:\Program Files\Monkey's Audio\MAC.exe
TOC of the extracted CD
Track | Start | Length | Start sector | End sector
---------------------------------------------------------
1 | 0:00.00 | 8:15.21 | 0 | 37145
2 | 8:15.21 | 8:10.40 | 37146 | 73935
3 | 16:25.61 | 4:25.72 | 73936 | 93882
4 | 20:51.58 | 3:50.29 | 93883 | 111161
5 | 24:42.12 | 3:51.47 | 111162 | 128533
6 | 28:33.59 | 4:23.58 | 128534 | 148316
7 | 32:57.42 | 4:30.14 | 148317 | 168580
8 | 37:27.56 | 4:43.01 | 168581 | 189806
9 | 42:10.57 | 5:43.69 | 189807 | 215600
10 | 47:54.51 | 3:51.58 | 215601 | 232983
11 | 51:46.34 | 8:01.55 | 232984 | 269113
12 | 59:48.14 | 6:14.09 | 269114 | 297172
Range status and errors
Selected range
Filename C:\uTorrent\CD\Supermax - 20th Anniversary 1997 CD1\Supermax - 20th Anniversary 1997 CD1.wav
Peak level 100.0 %
Range quality 100.0 %
Copy CRC 1A924454
Copy OK
No errors occurred
AccurateRip summary
Track 1 not present in database
Track 2 not present in database
Track 3 not present in database
Track 4 not present in database
Track 5 not present in database
Track 6 not present in database
Track 7 not present in database
Track 8 not present in database
Track 9 not present in database
Track 10 not present in database
Track 11 not present in database
Track 12 not present in database
None of the tracks are present in the AccurateRip database
End of status report
Supermax - 20th Anniversary 1997 CD2
YEAR: 1997 ID3G: 17

01. Jungledance [0:06:57.08]
02. Bango bongo [0:06:27.38]
03. Kick the nation [0:06:58.57]
04. Good times [0:04:42.10]
05. Purple people [0:04:12.02]
06. Magnetic rhythm [0:08:24.36]
07. Heaven of music [0:04:46.65]
08. Living in a world [0:06:05.00]
09. Miss you [0:05:17.06]
10. Bandmembers [0:04:33.25]
11. Gotta be funky [0:06:08.20]
12. I know you gonna dig this [0:04:37.72]

Коврики в теме

20th Anniversary 1997 CD2

Exact Audio Copy V0.99 prebeta 4 from 23. January 2008
EAC extraction logfile from 28. April 2008, 19:06
Supermax / 20th Anniversary 1997 CD2
Used drive : TSSTcorpCDDVDW SH-S203B Adapter: 6 ID: 0
Read mode : Secure
Utilize accurate stream : Yes
Defeat audio cache : Yes
Make use of C2 pointers : No
Read offset correction : 6
Overread into Lead-In and Lead-Out : No
Fill up missing offset samples with silence : Yes
Delete leading and trailing silent blocks : No
Null samples used in CRC calculations : Yes
Used interface : Installed external ASPI interface
Used output format : Monkey's Audio Lossless Encoder
Selected bitrate : Fast Lossless Compression
Quality : High
Add ID3 tag : No
Command line compressor : C:\Program Files\Monkey's Audio\MAC.exe
TOC of the extracted CD
Track | Start | Length | Start sector | End sector
---------------------------------------------------------
1 | 0:00.00 | 6:57.08 | 0 | 31282
2 | 6:57.08 | 6:27.38 | 31283 | 60345
3 | 13:24.46 | 6:58.57 | 60346 | 91752
4 | 20:23.28 | 4:42.10 | 91753 | 112912
5 | 25:05.38 | 4:12.02 | 112913 | 131814
6 | 29:17.40 | 8:24.36 | 131815 | 169650
7 | 37:42.01 | 4:46.65 | 169651 | 191165
8 | 42:28.66 | 6:05.00 | 191166 | 218540
9 | 48:33.66 | 5:17.06 | 218541 | 242321
10 | 53:50.72 | 4:33.25 | 242322 | 262821
11 | 58:24.22 | 6:08.20 | 262822 | 290441
12 | 64:32.42 | 4:37.72 | 290442 | 311288
Range status and errors
Selected range
Filename C:\uTorrent\CD\Supermax - 20th Anniversary 1997 CD1\Supermax - 20th Anniversary 1997 CD2.wav
Peak level 100.0 %
Range quality 100.0 %
Copy CRC C3D573C5
Copy OK
No errors occurred
AccurateRip summary
Track 1 not present in database
Track 2 not present in database
Track 3 not present in database
Track 4 not present in database
Track 5 not present in database
Track 6 not present in database
Track 7 not present in database
Track 8 not present in database
Track 9 not present in database
Track 10 not present in database
Track 11 not present in database
Track 12 not present in database
None of the tracks are present in the AccurateRip database
End of status report

If you like the topic, please click share to help develop our site.

To download the file disable ad blocking, and reload the page.

disable adblock How to disable ad blocking?

Download by magnet link 906 MB Download Torrent

Login using:

Similar topics

(Pop-Rock | Folk-Rock) Adam Eaton - Catastrophes - 2013, MP3, 320 kbps
 85 MB   0 | 0   08-May-19 11:40   0


   
Current time is: 27-May 02:50 :: All times are UTC + 3