Sounds Of The Eighties - 1983
Жанр: Various
Носитель: CD
Страна-производитель диска (релиза): USA
Год издания: 1994
Издатель (лейбл): Time-Life Music/Warner Special Product
Номер по каталогу: OPCD-2732/R988-03
Аудиокодек: FLAC (*.flac)
Тип рипа: tracks+.cue
Битрейт аудио: lossless
Продолжительность: 01:13:51
Источник (релизер): zo6vetteboy
Наличие сканов в содержимом раздачи: Front/Back/CD

Треклист:
01. Quiet Riot – Cum On Feel The Noize
02. The Fixx – One Thing Leads To Another
03. Stray Cats – (She's) Sexy + 17
04. Dexys Midnight Runners – Come On Eileen
05. Daryl Hall And John Oates – Say It Isn't So
06. Thomas Dolby – She Blinded Me With Science
07. David Bowie – China Girl
08. Culture Club – Time (Clock Of The Heart)
09. Marvin Gaye – Sexual Healing
10. Michael Sembello – Maniac
11. Naked Eyes – Always Something There To Remind Me
12. Madness – Our House
13. Toto – Africa
14. Stevie Nicks – Stand Back
15. Greg Kihn Band – Jeopardy
16. The Kinks – Come Dancing
17. Kajagoogoo – Too Shy
18. Spandau Ballet – True

Лог создания рипа

Exact Audio Copy V1.1 from 23. June 2015
EAC extraction logfile from 3. February 2017, 21:55
Various / Sounds Of The Eighties - 1983
Used drive : TSSTcorpDVDWBD SH-B123L Adapter: 1 ID: 0
Read mode : Secure
Utilize accurate stream : Yes
Defeat audio cache : Yes
Make use of C2 pointers : No
Read offset correction : 6
Overread into Lead-In and Lead-Out : No
Fill up missing offset samples with silence : Yes
Delete leading and trailing silent blocks : No
Null samples used in CRC calculations : Yes
Used interface : Native Win32 interface for Win NT & 2000
Gap handling : Appended to previous track
Used output format : User Defined Encoder
Selected bitrate : 1024 kBit/s
Quality : High
Add ID3 tag : No
Command line compressor : J:\Program Files (x86)\FlacSquisher\flac.exe
Additional command line options : -8 -e -p -V -T "ARTIST=%artist%" -T "TITLE=%title%" -T "ALBUM=%albumtitle%" -T "DATE=%year%" -T "TRACKNUMBER=%tracknr%" -T "GENRE=%genre%" -T "PERFORMER=%albuminterpret%" -T "COMPOSER=%composer%" %haslyrics%--tag-from-file=LYRICS="%lyricsfile%"%haslyrics% -T "ALBUMARTIST=%albumartist%" -T "DISCNUMBER=%cdnumber%" -T "TOTALDISCS=%totalcds%" -T "TOTALTRACKS=%numtracks%" -T "COMMENT=%comment%" %source% -o %dest%
TOC of the extracted CD
Track | Start | Length | Start sector | End sector
---------------------------------------------------------
1 | 0:00.32 | 4:52.70 | 32 | 22001
2 | 4:53.27 | 3:19.45 | 22002 | 36971
3 | 8:12.72 | 3:32.38 | 36972 | 52909
4 | 11:45.35 | 4:14.57 | 52910 | 72016
5 | 16:00.17 | 4:03.25 | 72017 | 90266
6 | 20:03.42 | 5:10.43 | 90267 | 113559
7 | 25:14.10 | 4:18.27 | 113560 | 132936
8 | 29:32.37 | 3:46.33 | 132937 | 149919
9 | 33:18.70 | 3:59.35 | 149920 | 167879
10 | 37:18.30 | 4:14.07 | 167880 | 186936
11 | 41:32.37 | 3:42.25 | 186937 | 203611
12 | 45:14.62 | 3:24.68 | 203612 | 218979
13 | 48:39.55 | 4:21.52 | 218980 | 238606
14 | 53:01.32 | 4:25.03 | 238607 | 258484
15 | 57:26.35 | 3:49.22 | 258485 | 275681
16 | 61:15.57 | 3:57.30 | 275682 | 293486
17 | 65:13.12 | 3:46.00 | 293487 | 310436
18 | 68:59.12 | 5:40.40 | 310437 | 335976
Track 1
Filename N:\EAC Rips\Various Artists - Sounds Of The Eighties - 1983\01 - Quiet Riot - Cum On Feel The Noize.wav
Pre-gap length 0:00:02.42
Peak level 93.0 %
Extraction speed 2.3 X
Track quality 100.0 %
Test CRC DE0F3DF8
Copy CRC DE0F3DF8
Accurately ripped (confidence 50) [FDC3BCC8] (AR v2)
Copy OK
Track 2
Filename N:\EAC Rips\Various Artists - Sounds Of The Eighties - 1983\02 - Fixx - One Thing Leads To Another.wav
Pre-gap length 0:00:02.09
Peak level 78.1 %
Extraction speed 2.3 X
Track quality 100.0 %
Test CRC F344AB5A
Copy CRC F344AB5A
Accurately ripped (confidence 49) [A34A5277] (AR v2)
Copy OK
Track 3
Filename N:\EAC Rips\Various Artists - Sounds Of The Eighties - 1983\03 - Stray Cats - (She's) Sexy And 17.wav
Pre-gap length 0:00:02.82
Peak level 68.3 %
Extraction speed 2.6 X
Track quality 100.0 %
Test CRC 771DCB47
Copy CRC 771DCB47
Accurately ripped (confidence 50) [549FD514] (AR v2)
Copy OK
Track 4
Filename N:\EAC Rips\Various Artists - Sounds Of The Eighties - 1983\04 - Dexy's Midnight Runners - Come On Eileen.wav
Pre-gap length 0:00:03.77
Peak level 99.0 %
Extraction speed 2.8 X
Track quality 100.0 %
Test CRC E92FB1B2
Copy CRC E92FB1B2
Accurately ripped (confidence 50) [38A85D45] (AR v2)
Copy OK
Track 5
Filename N:\EAC Rips\Various Artists - Sounds Of The Eighties - 1983\05 - Daryl Hall And John Oates - Say It Isn't So.wav
Pre-gap length 0:00:01.29
Peak level 96.4 %
Extraction speed 2.4 X
Track quality 99.9 %
Test CRC 13BAAF22
Copy CRC 13BAAF22
Accurately ripped (confidence 49) [09078297] (AR v2)
Copy OK
Track 6
Filename N:\EAC Rips\Various Artists - Sounds Of The Eighties - 1983\06 - Thomas Dolby - She Blinded Me With Science.wav
Pre-gap length 0:00:01.82
Peak level 71.9 %
Extraction speed 3.2 X
Track quality 100.0 %
Test CRC 9966A5BB
Copy CRC 9966A5BB
Accurately ripped (confidence 51) [2BCEAA66] (AR v2)
Copy OK
Track 7
Filename N:\EAC Rips\Various Artists - Sounds Of The Eighties - 1983\07 - David Bowie - China Girl.wav
Pre-gap length 0:00:03.00
Peak level 100.0 %
Extraction speed 3.3 X
Track quality 100.0 %
Test CRC B0773AB9
Copy CRC B0773AB9
Accurately ripped (confidence 51) [DDFEEF07] (AR v2)
Copy OK
Track 8
Filename N:\EAC Rips\Various Artists - Sounds Of The Eighties - 1983\08 - Culture Club - Time (Clock Of The Heart).wav
Pre-gap length 0:00:03.36
Peak level 89.6 %
Extraction speed 3.4 X
Track quality 100.0 %
Test CRC E26E4990
Copy CRC E26E4990
Accurately ripped (confidence 49) [F7904C4D] (AR v2)
Copy OK
Track 9
Filename N:\EAC Rips\Various Artists - Sounds Of The Eighties - 1983\09 - Marvin Gaye - Sexual Healing.wav
Pre-gap length 0:00:02.84
Peak level 99.0 %
Extraction speed 3.6 X
Track quality 100.0 %
Test CRC C6D8B691
Copy CRC C6D8B691
Accurately ripped (confidence 51) [39C8139A] (AR v2)
Copy OK
Track 10
Filename N:\EAC Rips\Various Artists - Sounds Of The Eighties - 1983\10 - Michael Sembello - Maniac.wav
Pre-gap length 0:00:02.30
Peak level 99.0 %
Extraction speed 3.7 X
Track quality 100.0 %
Test CRC 1C46C71A
Copy CRC 1C46C71A
Accurately ripped (confidence 51) [4AC2E27C] (AR v2)
Copy OK
Track 11
Filename N:\EAC Rips\Various Artists - Sounds Of The Eighties - 1983\11 - Naked Eyes - Always Something There To Remind Me.wav
Pre-gap length 0:00:03.82
Peak level 99.9 %
Extraction speed 3.8 X
Track quality 100.0 %
Test CRC 94A8447D
Copy CRC 94A8447D
Accurately ripped (confidence 50) [6F4D9C01] (AR v2)
Copy OK
Track 12
Filename N:\EAC Rips\Various Artists - Sounds Of The Eighties - 1983\12 - Madness - Our House.wav
Pre-gap length 0:00:03.09
Peak level 99.0 %
Extraction speed 3.8 X
Track quality 100.0 %
Test CRC 20DFCAB1
Copy CRC 20DFCAB1
Accurately ripped (confidence 51) [407767B7] (AR v2)
Copy OK
Track 13
Filename N:\EAC Rips\Various Artists - Sounds Of The Eighties - 1983\13 - Toto - Africa.wav
Pre-gap length 0:00:03.26
Peak level 99.0 %
Extraction speed 4.1 X
Track quality 100.0 %
Test CRC 7BE27B21
Copy CRC 7BE27B21
Accurately ripped (confidence 51) [F25A8E59] (AR v2)
Copy OK
Track 14
Filename N:\EAC Rips\Various Artists - Sounds Of The Eighties - 1983\14 - Stevie Nicks - Stand Back.wav
Pre-gap length 0:00:03.22
Peak level 99.0 %
Extraction speed 4.2 X
Track quality 100.0 %
Test CRC 8F95E0EA
Copy CRC 8F95E0EA
Accurately ripped (confidence 51) [5963CCE3] (AR v2)
Copy OK
Track 15
Filename N:\EAC Rips\Various Artists - Sounds Of The Eighties - 1983\15 - Greg Kihn Band - Jeopardy.wav
Pre-gap length 0:00:03.70
Peak level 99.0 %
Extraction speed 4.2 X
Track quality 100.0 %
Test CRC 01650A7A
Copy CRC 01650A7A
Accurately ripped (confidence 51) [F216F581] (AR v2)
Copy OK
Track 16
Filename N:\EAC Rips\Various Artists - Sounds Of The Eighties - 1983\16 - Kinks - Come Dancing.wav
Pre-gap length 0:00:01.73
Peak level 97.2 %
Extraction speed 3.1 X
Track quality 99.9 %
Test CRC 4C38F462
Copy CRC 4C38F462
Accurately ripped (confidence 50) [D133DD60] (AR v2)
Copy OK
Track 17
Filename N:\EAC Rips\Various Artists - Sounds Of The Eighties - 1983\17 - Kajagoogoo - Too Shy.wav
Pre-gap length 0:00:02.82
Peak level 99.0 %
Extraction speed 4.5 X
Track quality 100.0 %
Test CRC 03F4E8D4
Copy CRC 03F4E8D4
Accurately ripped (confidence 49) [3772F265] (AR v2)
Copy OK
Track 18
Filename N:\EAC Rips\Various Artists - Sounds Of The Eighties - 1983\18 - Spandau Ballet - True.wav
Pre-gap length 0:00:03.49
Peak level 83.9 %
Extraction speed 4.8 X
Track quality 100.0 %
Test CRC C0E4E612
Copy CRC C0E4E612
Accurately ripped (confidence 47) [4D9851C5] (AR v2)
Copy OK
All tracks accurately ripped
No errors occurred
End of status report
---- CUETools DB Plugin V2.1.6
[CTDB TOCID: t3xsF0ltc_Xa2DxH5FM9rcn462U-] found
Submit result: t3xsF0ltc_Xa2DxH5FM9rcn462U- has been confirmed
Track | CTDB Status
1 | (26/26) Accurately ripped
2 | (26/26) Accurately ripped
3 | (26/26) Accurately ripped
4 | (26/26) Accurately ripped
5 | (26/26) Accurately ripped
6 | (26/26) Accurately ripped
7 | (26/26) Accurately ripped
8 | (26/26) Accurately ripped
9 | (25/26) Accurately ripped
10 | (26/26) Accurately ripped
11 | (26/26) Accurately ripped
12 | (26/26) Accurately ripped
13 | (26/26) Accurately ripped
14 | (26/26) Accurately ripped
15 | (26/26) Accurately ripped
16 | (26/26) Accurately ripped
17 | (26/26) Accurately ripped
18 | (25/26) Accurately ripped
==== Log checksum 21297B9765A0958EE9DD33962D6743D483FFD64311A19388207CE00580A0E95C ====

Содержание индексной карты (.CUE)

REM GENRE Pop
REM DATE 1994
REM DISCID FA117F12
REM COMMENT "ExactAudioCopy v1.1"
PERFORMER "Various"
TITLE "Sounds Of The Eighties - 1983"
FILE "01 - Quiet Riot - Cum On Feel The Noize.wav" WAVE
TRACK 01 AUDIO
TITLE "Cum On Feel The Noize"
PERFORMER "Quiet Riot"
PREGAP 00:00:32
INDEX 01 00:00:00
TRACK 02 AUDIO
TITLE "One Thing Leads To Another"
PERFORMER "Fixx"
INDEX 00 04:50:63
FILE "02 - Fixx - One Thing Leads To Another.wav" WAVE
INDEX 01 00:00:00
TRACK 03 AUDIO
TITLE "(She's) Sexy And 17"
PERFORMER "Stray Cats"
INDEX 00 03:16:58
FILE "03 - Stray Cats - (She's) Sexy And 17.wav" WAVE
INDEX 01 00:00:00
TRACK 04 AUDIO
TITLE "Come On Eileen"
PERFORMER "Dexy's Midnight Runners"
INDEX 00 03:28:55
FILE "04 - Dexy's Midnight Runners - Come On Eileen.wav" WAVE
INDEX 01 00:00:00
TRACK 05 AUDIO
TITLE "Say It Isn't So"
PERFORMER "Daryl Hall And John Oates"
INDEX 00 04:13:35
FILE "05 - Daryl Hall And John Oates - Say It Isn't So.wav" WAVE
INDEX 01 00:00:00
TRACK 06 AUDIO
TITLE "She Blinded Me With Science"
PERFORMER "Thomas Dolby"
INDEX 00 04:01:38
FILE "06 - Thomas Dolby - She Blinded Me With Science.wav" WAVE
INDEX 01 00:00:00
TRACK 07 AUDIO
TITLE "China Girl"
PERFORMER "David Bowie"
INDEX 00 05:07:43
FILE "07 - David Bowie - China Girl.wav" WAVE
INDEX 01 00:00:00
TRACK 08 AUDIO
TITLE "Time (Clock Of The Heart)"
PERFORMER "Culture Club"
INDEX 00 04:15:00
FILE "08 - Culture Club - Time (Clock Of The Heart).wav" WAVE
INDEX 01 00:00:00
TRACK 09 AUDIO
TITLE "Sexual Healing"
PERFORMER "Marvin Gaye"
INDEX 00 03:43:45
FILE "09 - Marvin Gaye - Sexual Healing.wav" WAVE
INDEX 01 00:00:00
TRACK 10 AUDIO
TITLE "Maniac"
PERFORMER "Michael Sembello"
INDEX 00 03:57:12
FILE "10 - Michael Sembello - Maniac.wav" WAVE
INDEX 01 00:00:00
TRACK 11 AUDIO
TITLE "Always Something There To Remind Me"
PERFORMER "Naked Eyes"
INDEX 00 04:10:20
FILE "11 - Naked Eyes - Always Something There To Remind Me.wav" WAVE
INDEX 01 00:00:00
TRACK 12 AUDIO
TITLE "Our House"
PERFORMER "Madness"
INDEX 00 03:39:18
FILE "12 - Madness - Our House.wav" WAVE
INDEX 01 00:00:00
TRACK 13 AUDIO
TITLE "Africa"
PERFORMER "Toto"
INDEX 00 03:21:48
FILE "13 - Toto - Africa.wav" WAVE
INDEX 01 00:00:00
TRACK 14 AUDIO
TITLE "Stand Back"
PERFORMER "Stevie Nicks"
INDEX 00 04:18:35
FILE "14 - Stevie Nicks - Stand Back.wav" WAVE
INDEX 01 00:00:00
TRACK 15 AUDIO
TITLE "Jeopardy"
PERFORMER "Greg Kihn Band"
INDEX 00 04:21:25
FILE "15 - Greg Kihn Band - Jeopardy.wav" WAVE
INDEX 01 00:00:00
TRACK 16 AUDIO
TITLE "Come Dancing"
PERFORMER "Kinks"
INDEX 00 03:47:42
FILE "16 - Kinks - Come Dancing.wav" WAVE
INDEX 01 00:00:00
TRACK 17 AUDIO
TITLE "Too Shy"
PERFORMER "Kajagoogoo"
INDEX 00 03:54:43
FILE "17 - Kajagoogoo - Too Shy.wav" WAVE
INDEX 01 00:00:00
TRACK 18 AUDIO
TITLE "True"
PERFORMER "Spandau Ballet"
INDEX 00 03:42:38
FILE "18 - Spandau Ballet - True.wav" WAVE
INDEX 01 00:00:00

AccurateRip

[CUETools log; Date: 07.06.2017 20:24:28; Version: 2.1.5]
Pregap length 00:00:32.
[CTDB TOCID: t3xsF0ltc_Xa2DxH5FM9rcn462U-] found.
Track | CTDB Status
1 | (31/31) Accurately ripped
2 | (31/31) Accurately ripped
3 | (31/31) Accurately ripped
4 | (31/31) Accurately ripped
5 | (31/31) Accurately ripped
6 | (31/31) Accurately ripped
7 | (31/31) Accurately ripped
8 | (31/31) Accurately ripped
9 | (30/31) Accurately ripped
10 | (31/31) Accurately ripped
11 | (31/31) Accurately ripped
12 | (31/31) Accurately ripped
13 | (31/31) Accurately ripped
14 | (31/31) Accurately ripped
15 | (31/31) Accurately ripped
16 | (31/31) Accurately ripped
17 | (31/31) Accurately ripped
18 | (30/31) Accurately ripped
[AccurateRip ID: 00303a7d-0282403f-fa117f12] found.
Track [ CRC | V2 ] Status
01 [a87ac818|fdc3bcc8] (048+055/107) Accurately ripped
02 [15d298cb|a34a5277] (049+054/107) Accurately ripped
03 [02ff3f54|549fd514] (050+055/109) Accurately ripped
04 [0bfc799e|38a85d45] (051+055/110) Accurately ripped
05 [2cf71803|09078297] (047+054/105) Accurately ripped
06 [93617985|2bceaa66] (052+056/112) Accurately ripped
07 [e55d6566|ddfeef07] (048+056/109) Accurately ripped
08 [1b32e292|f7904c4d] (047+054/106) Accurately ripped
09 [aee12a1f|39c8139a] (051+056/111) Accurately ripped
10 [2e825cb4|4ac2e27c] (049+056/109) Accurately ripped
11 [8c2b1636|6f4d9c01] (052+055/111) Accurately ripped
12 [367dd2cf|407767b7] (050+056/110) Accurately ripped
13 [3ab9d755|f25a8e59] (050+056/110) Accurately ripped
14 [88a839ed|5963cce3] (048+056/109) Accurately ripped
15 [ec5b853d|f216f581] (050+056/110) Accurately ripped
16 [eb44f72b|d133dd60] (050+055/109) Accurately ripped
17 [9c106c13|3772f265] (050+054/108) Accurately ripped
18 [ceb9d75c|4d9851c5] (040+052/094) Accurately ripped
Offsetted by -1803:
01 [a6e7e0ee] (002/107) Accurately ripped
02 [e1e78552] (002/107) Accurately ripped
03 [07f27243] (002/109) Accurately ripped
04 [4f67d3aa] (002/110) Accurately ripped
05 [8ae7adad] (002/105) Accurately ripped
06 [732956bb] (002/112) Accurately ripped
07 [279afbb4] (003/109) Accurately ripped
08 [8f6c9dd8] (003/106) Accurately ripped
09 [16601297] (002/111) Accurately ripped
10 [6c4016c3] (002/109) Accurately ripped
11 [c5e9d2f8] (002/111) Accurately ripped
12 [89cf27eb] (002/110) Accurately ripped
13 [8f6fb9ae] (002/110) Accurately ripped
14 [dbf45ac6] (003/109) Accurately ripped
15 [68e649e8] (002/110) Accurately ripped
16 [005542e6] (002/109) Accurately ripped
17 [ccfdd776] (002/108) Accurately ripped
18 [74ee1051] (000/094) No match (V2 was not tested)
Offsetted by -600:
01 [ba45a2c8] (000/107) No match (V2 was not tested)
02 [d2484f03] (000/107) No match (V2 was not tested)
03 [2e6358cc] (000/109) No match (V2 was not tested)
04 [02e6b1fe] (000/110) No match (V2 was not tested)
05 [404cb153] (000/105) No match (V2 was not tested)
06 [8915b735] (000/112) No match (V2 was not tested)
07 [73f43bd6] (000/109) No match (V2 was not tested)
08 [a6d3f0c2] (000/106) No match (V2 was not tested)
09 [762a7ddf] (000/111) No match (V2 was not tested)
10 [dd406f2c] (000/109) No match (V2 was not tested)
11 [1d0ab846] (000/111) No match (V2 was not tested)
12 [e9dbc3af] (000/110) No match (V2 was not tested)
13 [80a8d81d] (000/110) No match (V2 was not tested)
14 [be5c2eb5] (000/109) No match (V2 was not tested)
15 [c7da3495] (000/110) No match (V2 was not tested)
16 [bc9bbf03] (000/109) No match (V2 was not tested)
17 [20a1e12b] (000/108) No match (V2 was not tested)
18 [4a638d9c] (000/094) No match (V2 was not tested)
Track Peak [ CRC32 ] [W/O NULL] [ LOG ]
-- 100,0 [9888E8E9] [37ABD053]
01 93,0 [DE0F3DF8] [C2767F19] CRC32
02 78,1 [F344AB5A] [01876109] CRC32
03 68,3 [771DCB47] [127A0501] CRC32
04 99,0 [E92FB1B2] [38F26A68] CRC32
05 96,4 [13BAAF22] [E896892C] CRC32
06 71,9 [9966A5BB] [DC8808A6] CRC32
07 100,0 [B0773AB9] [E8829757] CRC32
08 89,6 [E26E4990] [9CD54DB4] CRC32
09 99,0 [C6D8B691] [8C81FC5F] CRC32
10 99,0 [1C46C71A] [EB6FF261] CRC32
11 99,9 [94A8447D] [3B44C577] CRC32
12 99,0 [20DFCAB1] [A3CD8FB6] CRC32
13 99,0 [7BE27B21] [C1367FE1] CRC32
14 99,0 [8F95E0EA] [52598C0B] CRC32
15 99,0 [01650A7A] [C7445F8D] CRC32
16 97,2 [4C38F462] [6D495AD0] CRC32
17 99,0 [03F4E8D4] [BA186D4A] CRC32
18 83,9 [C0E4E612] [D14B46C5] CRC32

If you like the topic, please click share to help develop our site.

To download the file disable ad blocking, and reload the page.

disable adblock How to disable ad blocking?

Download by magnet link 488 MB Download Torrent

Login using:

Similar topics



   
Current time is: 21-Jul 16:29 :: All times are UTC + 3