Madder Mortem - Deadlands
Жанр: Atmospheric Dark Metal
Год выпуска диска: 2002
Производитель диска: Norway (Oslo)
Аудио кодек: FLAC
Тип рипа: image+.cue
Битрейт аудио: lossless
Продолжительность: 57:13
Трэклист:
01 Enter
02 Necropol Lit
03 Omnivore
04 Rust Cleansing
05 Faceless
06 Distance Will Save Us
07 Silverspine
08 Jigsaw (The Pattern And The Puzzle)
09 Deadlands
10 Resonatine

Доп. информация

Начнем с того, что шансов въехать в творчество Madder Mortem с первого раза у слушателя впервые столкнувшегося с группой будет не более нуля, так что не спешите отбрасывать диск в сторону после первого неудачного опыта, уже после нескольких прослушиваний перед вами начнет открываться истинный музыкальный мир этой команды.
Состав группы:
Agnete M. Kirkevaag - Vocals
BP M. Kirkevaag - Guitars, voice and percussion
Eirik Ulvo Langnes - Guitars
Paul Mozart Bjorke - Bass, vocals and percussion
Mads Solaas - Drums and percussion

Отчёт EAC

Exact Audio Copy V0.99 prebeta 4 from 23. January 2008
Отчёт EAC об извлечении, выполненном 2. сентября 2008, 13:53
Madder Mortem / Deadlands
Дисковод: LITE-ON DVDRW LH-20A1L Adapter: 1 ID: 0
Режим чтения : Достоверность
Использование точного потока : Да
Отключение кэша аудио : Да
Использование указателей C2 : Нет
Коррекция смещения при чтении : 6
Способность читать области Lead-in и Lead-out : Нет
Заполнение пропущенных сэмплов тишиной : Да
Удаление блоков с тишиной в начале и конце : Нет
При вычислениях CRC использовались нулевые сэмплы : Да
Интерфейс : Встроенный Win32-интерфейс для Win NT/2000
Выходной формат : Пользовательский кодировщик
Выбранный битрейт : 768 kBit/s
Качество : Высокий
TOC извлечённого CD
Трек | Старт | Длительность | Начальный сектор | Конечный сектор
---------------------------------------------------------------------
1 | 0:00.00 | 1:07.33 | 0 | 5057
2 | 1:07.33 | 4:04.01 | 5058 | 23358
3 | 5:11.34 | 4:44.22 | 23359 | 44680
4 | 9:55.56 | 7:20.63 | 44681 | 77743
5 | 17:16.44 | 5:41.71 | 77744 | 103389
6 | 22:58.40 | 5:06.18 | 103390 | 126357
7 | 28:04.58 | 8:12.02 | 126358 | 163259
8 | 36:16.60 | 4:53.23 | 163260 | 185257
9 | 41:10.08 | 6:05.64 | 185258 | 212696
10 | 47:15.72 | 9:57.62 | 212697 | 257533
Характеристики диапазона извлечения и сообщения об ошибках
Выбранный диапазон
Имя файла C:\Rip\Madder Mortem - Deadlands.wav
Пиковый уровень 99.4 %
Качество диапазона 100.0 %
CRC копии B26D9BAD
Копирование... OK
Ошибок не произошло

ape_batch_check


If you like the topic, please click share to help develop our site.

To download the file disable ad blocking, and reload the page.

disable adblock How to disable ad blocking?

Download by magnet link 414 MB Download Torrent

Login using:

Similar topics



   
Current time is: 27-May 02:00 :: All times are UTC + 3