Madder Mortem - Eight Ways
Жанр: Atmospheric Dark Metal
Год выпуска диска: 2009
Производитель диска: Russia, Soyuz
Аудио кодек: FLAC
Тип рипа: image+.cue
Трэклист:
1. Formaldehyde 05:26
2. The Little Things 05:02
3. Armour 05:04
4. Resolution 06:30
5. A Different Kind Of Hell 05:21
6. Riddle Wants To Be 04:11
7. Where Dream And Day Collide 05:53
8. The Flesh, The Blood And The Man 04:37
9. Get That Monster Out Of Here 05:43
10. Life, Lust & Liberty 04:19
11. All I Know 03:56
12. The Eighth Wave 09:14
Состав:
Agnete M. Kirkevaag - Vocals
BP M. Kirkevaag - Guitars, vocals, mandolin
Odd E. Ebbesen - Guitars
Tormod L. Moseng - Bass & double bass
Mads Solås - Drums, vocals & percussion

EAC log

Exact Audio Copy V0.99 prebeta 4 from 23. January 2008
EAC extraction logfile from 13. November 2009, 16:44
Madder Mortem / Eight Ways
Used drive : ATAPI DVD A DH16A1L Adapter: 1 ID: 0
Read mode : Secure
Utilize accurate stream : Yes
Defeat audio cache : Yes
Make use of C2 pointers : No
Read offset correction : 6
Overread into Lead-In and Lead-Out : No
Fill up missing offset samples with silence : Yes
Delete leading and trailing silent blocks : No
Null samples used in CRC calculations : Yes
Used interface : Native Win32 interface for Win NT & 2000
Used output format : Internal WAV Routines
Sample format : 44.100 Hz; 16 Bit; Stereo
TOC of the extracted CD
Track | Start | Length | Start sector | End sector
---------------------------------------------------------
1 | 0:00.00 | 5:23.62 | 0 | 24286
2 | 5:23.62 | 4:58.68 | 24287 | 46704
3 | 10:22.55 | 5:01.20 | 46705 | 69299
4 | 15:24.00 | 6:24.73 | 69300 | 98172
5 | 21:48.73 | 5:11.45 | 98173 | 121542
6 | 27:00.43 | 4:08.33 | 121543 | 140175
7 | 31:09.01 | 5:43.74 | 140176 | 165974
8 | 36:53.00 | 4:32.00 | 165975 | 186374
9 | 41:25.00 | 5:37.00 | 186375 | 211649
10 | 47:02.00 | 4:19.00 | 211650 | 231074
11 | 51:21.00 | 3:47.67 | 231075 | 248166
12 | 55:08.67 | 9:14.08 | 248167 | 289724
Range status and errors
Selected range
Filename C:\Madder Mortem - Eight Ways.wav
Peak level 100.0 %
Range quality 100.0 %
Copy CRC E3573E41
Copy OK
No errors occurred
AccurateRip summary
Track 1 cannot be verified as accurate (confidence 3) [AAF27267], AccurateRip returned [385BEA88]
Track 2 cannot be verified as accurate (confidence 3) [98B5A0E4], AccurateRip returned [D0350EAF]
Track 3 cannot be verified as accurate (confidence 3) [7E4280A6], AccurateRip returned [8980C830]
Track 4 cannot be verified as accurate (confidence 3) [8D35AD43], AccurateRip returned [9521DDDF]
Track 5 cannot be verified as accurate (confidence 3) [62BD0352], AccurateRip returned [EFD76836]
Track 6 cannot be verified as accurate (confidence 3) [A6DE7AD8], AccurateRip returned [F6EC273F]
Track 7 cannot be verified as accurate (confidence 3) [B73FB04D], AccurateRip returned [A3C4F8AF]
Track 8 cannot be verified as accurate (confidence 3) [69A1CC09], AccurateRip returned [2598C777]
Track 9 cannot be verified as accurate (confidence 3) [06D390A0], AccurateRip returned [1842856C]
Track 10 cannot be verified as accurate (confidence 3) [8F377C9B], AccurateRip returned [049E50AC]
Track 11 cannot be verified as accurate (confidence 3) [00B6F4C1], AccurateRip returned [408DFEB1]
Track 12 cannot be verified as accurate (confidence 3) [0E81144D], AccurateRip returned [C74206F4]
No tracks could be verified as accurate
You may have a different pressing from the one(s) in the database
End of status report

If you like the topic, please click share to help develop our site.

To download the file disable ad blocking, and reload the page.

disable adblock How to disable ad blocking?

Download by magnet link 461 MB Download Torrent

Login using:

Similar topics



   
Current time is: 27-May 02:01 :: All times are UTC + 3