Идеальный побег / A Perfect Getaway (2009) BDRip 720p [Director's Cut] - Производство: США, Relativity Media
Жанр: Триллер, Детектив, Приключения
Режиссер: Дэвид Туи
Продюсер: Робби Бреннер, Марк Кантон, Райан Кавана
Актеры: Милла Йовович, Тимоти Олифант, Киле Санчез, Стив Зан, Марли Шелтон, Крис Хемсворт, Энтони Руйвивар, Дейл Дикки
Описание:
Медовый месяц — самое счастливое время для молодоженов. Они — красивая пара, добившаяся успеха в жизни и впереди ожидающая только счастья и радости! Их свадебное путешествие на Гавайи похоже на сказку. Правда, все это омрачается грозными сообщениями о том, что на острове, куда они отправились, орудуют серийные убийцы

Дата мировой премьеры: 6 августа 2009
Дата премьеры в России: 3 сентября 2009, «Top Film Distribution»
Дата выхода DVD/Blu-ray релиза: 29 октября 2009, «Новый Диск»

Релиз от: K.E.N (free-download)
Продолжительность: 01:47:39
Качество видео: BDRip 720p
Перевод: Дублированный (вставками А.Дольского на расширенные моменты), авторский (одноголосый, закадровый) х2
Язык субтитров: Русский, английский
Вид субтитров: Вшитые отключаемые
Видео: AVC, 1280x544 (2.35:1), 23.976 fps, 4 100 Kbps (0.246 bit/pixel)
Аудио #1: AC-3, 48.0 KHz, 6 ch, 384 Kbps, CBR (Russian) - дубляж
Аудио #2: AC-3, 48.0 KHz, 6 ch, 448 Kbps, CBR (Russian) - авторский А.Дольский
Аудио #3: AC-3, 48.0 KHz, 6 ch, 448 Kbps, CBR (Russian) - авторский Ю.Немахов
Аудио #4: AC-3, 48.0 KHz, 6 ch, 448 Kbps, CBR (English) - оригинал

Mediainfo:

Формат : Matroska
Версия формата : Version 2
Размер файла : 4,38 Гбайт
Продолжительность : 1 ч. 47 м.
Общий поток : 5829 Кбит/сек
Дата кодирования : UTC 2015-12-20 07:09:43
Программа кодирования : mkvmerge v5.3.0 ('I could have danced') built on Feb 9 2012 10:38:07
Библиотека кодирования : libebml v1.2.3 + libmatroska v1.3.0
Attachment : Yes
Видео
Идентификатор : 1
Формат : AVC
Формат/Информация : Advanced Video Codec
Профиль формата : [email protected]
Параметр CABAC формата : Да
Параметр ReFrames формата : 10 кадров
Идентификатор кодека : V_MPEG4/ISO/AVC
Продолжительность : 1 ч. 47 м.
Битрейт : 4100 Кбит/сек
Ширина : 1280 пикселей
Высота : 544 пикселя
Соотношение сторон : 2,35:1
Режим частоты кадров : Постоянный
Частота кадров : 23,976 кадра/сек
Цветовое пространство : YUV
Субдискретизация насыщенности : 4:2:0
Битовая глубина : 8 бит
Тип развёртки : Прогрессивная
Бит/(Пиксели*Кадры) : 0.246
Размер потока : 3,00 Гбайт (68%)
Библиотека кодирования : x264 core 146 r2538 121396c
Настройки программы : cabac=1 / ref=10 / deblock=1:-3:-3 / analyse=0x3:0x133 / me=umh / subme=11 / psy=1 / psy_rd=1.00:0.00 / mixed_ref=1 / me_range=32 / chroma_me=1 / trellis=2 / 8x8dct=1 / cqm=0 / deadzone=21,11 / fast_pskip=0 / chroma_qp_offset=-2 / threads=12 / lookahead_threads=2 / sliced_threads=0 / nr=0 / decimate=0 / interlaced=0 / bluray_compat=0 / constrained_intra=0 / bframes=8 / b_pyramid=2 / b_adapt=2 / b_bias=0 / direct=3 / weightb=1 / open_gop=0 / weightp=2 / keyint=240 / keyint_min=23 / scenecut=40 / intra_refresh=0 / rc=2pass / mbtree=0 / bitrate=4100 / ratetol=1.0 / qcomp=0.60 / qpmin=0 / qpmax=69 / qpstep=4 / cplxblur=20.0 / qblur=0.5 / ip_ratio=1.40 / pb_ratio=1.30 / aq=2:0.80
Default : Да
Forced : Нет
Аудио #1
Идентификатор : 2
Формат : AC-3
Формат/Информация : Audio Coding 3
Расширение режима : CM (complete main)
Параметр Endianness формата : Big
Идентификатор кодека : A_AC3
Продолжительность : 1 ч. 47 м.
Вид битрейта : Постоянный
Битрейт : 384 Кбит/сек
Каналы : 6 каналов
Расположение каналов : Front: L C R, Side: L R, LFE
Частота : 48,0 КГц
Битовая глубина : 16 бит
Метод сжатия : С потерями
Размер потока : 296 Мбайт (7%)
Заголовок : Дубляж
Язык : Russian
Default : Да
Forced : Нет
Аудио #2
Идентификатор : 3
Формат : AC-3
Формат/Информация : Audio Coding 3
Расширение режима : CM (complete main)
Параметр Endianness формата : Big
Идентификатор кодека : A_AC3
Продолжительность : 1 ч. 47 м.
Вид битрейта : Постоянный
Битрейт : 448 Кбит/сек
Каналы : 6 каналов
Расположение каналов : Front: L C R, Side: L R, LFE
Частота : 48,0 КГц
Битовая глубина : 16 бит
Метод сжатия : С потерями
Размер потока : 345 Мбайт (8%)
Заголовок : Авторский А.Дольский
Язык : Russian
Default : Нет
Forced : Нет
Аудио #3
Идентификатор : 4
Формат : AC-3
Формат/Информация : Audio Coding 3
Расширение режима : CM (complete main)
Параметр Endianness формата : Big
Идентификатор кодека : A_AC3
Продолжительность : 1 ч. 47 м.
Вид битрейта : Постоянный
Битрейт : 448 Кбит/сек
Каналы : 6 каналов
Расположение каналов : Front: L C R, Side: L R, LFE
Частота : 48,0 КГц
Битовая глубина : 16 бит
Метод сжатия : С потерями
Размер потока : 345 Мбайт (8%)
Заголовок : Авторский Ю.Немахов
Язык : Russian
Default : Нет
Forced : Нет
Аудио #4
Идентификатор : 5
Формат : AC-3
Формат/Информация : Audio Coding 3
Расширение режима : CM (complete main)
Параметр Endianness формата : Big
Идентификатор кодека : A_AC3
Продолжительность : 1 ч. 47 м.
Вид битрейта : Постоянный
Битрейт : 448 Кбит/сек
Каналы : 6 каналов
Расположение каналов : Front: L C R, Side: L R, LFE
Частота : 48,0 КГц
Битовая глубина : 16 бит
Метод сжатия : С потерями
Размер потока : 345 Мбайт (8%)
Заголовок : оригинал
Язык : English
Default : Нет
Forced : Нет
Текст #1
Идентификатор : 6
Формат : UTF-8
Идентификатор кодека : S_TEXT/UTF8
Идентификатор кодека/Информация : UTF-8 Plain Text
Язык : Russian
Default : Нет
Forced : Нет
Текст #2
Идентификатор : 7
Формат : UTF-8
Идентификатор кодека : S_TEXT/UTF8
Идентификатор кодека/Информация : UTF-8 Plain Text
Язык : English
Default : Нет
Forced : Нет
Текст #3
Идентификатор : 8
Формат : ASS
Идентификатор кодека : S_TEXT/ASS
Идентификатор кодека/Информация : Advanced Sub Station Alpha
Метод сжатия : Без потерь
Язык : English
Default : Нет
Forced : Нет
Меню
00:00:00.000 : :Chapter 01
00:06:16.291 : :Chapter 02
00:10:20.869 : :Chapter 03
00:15:23.087 : :Chapter 04
00:21:15.731 : :Chapter 05
00:24:38.976 : :Chapter 06
00:32:16.099 : :Chapter 07
00:37:31.623 : :Chapter 08
00:42:53.820 : :Chapter 09
00:47:56.414 : :Chapter 10
00:55:06.844 : :Chapter 11
00:59:09.670 : :Chapter 12
01:03:08.242 : :Chapter 13
01:07:09.817 : :Chapter 14
01:14:28.463 : :Chapter 15
01:20:50.761 : :Chapter 16
01:24:50.082 : :Chapter 17
01:31:53.216 : :Chapter 18
01:38:45.877 : :Chapter 19
01:43:28.534 : :Chapter 20

Скриншоты



If you like the topic, please click share to help develop our site.

To download the file disable ad blocking, and reload the page.

disable adblock How to disable ad blocking?

Download by magnet link 4.38 GB Download Torrent

Login using:

Similar topics



   
Current time is: 25-May 18:23 :: All times are UTC + 3