Шестнадцать свечей / Sixteen Candles
Страна: США
Производство: Universal Pictures, Channel Productions
Год выпуска: 1984
Жанр: мелодрама, комедия
Продолжительность: 01:32:36
Режиссер: Джон Хьюз
Автор сценария: Джон Хьюз
В ролях: Молли Рингуолд, Энтони Майкл Холл, Пол Дули, Джастин Генри, Майкл Шоффлинг, Хэвиленд Моррис, Гедде Ватанабэ, Карлин Глинн
Описание: В день своего шестнадцатилетия Саманта Бейкер чувствует себя самым несчастным человеком на свете. Ведь из-за свадьбы сестры никто даже не вспомнил о дне её рождения! А тут ещё надоедливые бабка с дедом заставляют идти на школьный вечер с незнакомым китайцем, и ей никак не избавиться от противного новичка, воспылавшего к ней неземной любовью. И всё же, в глубине души, Саманта надеется, что парень, о котором она мечтает, обратит на неё внимание...

Перевод: 2х Профессиональный (многоголосый, закадровый)
Субтитры: русские, английские-Качество: BDRip 720p
Формат: MKV
Видео кодек: AVC
Аудио кодек: AC3
Видео: 1280x694 (1.85:1), 23.976 fps, MPEG-4 AVC ~5 315 kbps avg
Аудио №1: 48.0 kHz, AC3 Dolby Digital, 3/2 (L,C,R,l,r) + LFE ch, ~448 kbps | MVO / Пифагор
Аудио №2: 48.0 kHz, AC3 Dolby Digital, 2/0 (L,R) ch, ~192 kbps | MVO / СТС
Аудио №3: 48.0 kHz, AC3 Dolby Digital, 3/2 (L,C,R,l,r) + LFE ch, ~448 kbps kbps | ENG
Формат субтитров: UTF-8 Plain Text
Дата премьеры (мир): 4 мая 1984
Релиз от: msltel

Media Info

General
Уникальный идентификатор : 208477651301300280860438127089161896457 (0x9CD755CB951212CF91202D9E32E88209)
Полное имя : Шестнадцать свечей.1984.BDRip.720p by msltel.mkv
Формат : Matroska
Версия формата : Version 4 / Version 2
Размер файла : 4,14 Гбайт
Продолжительность : 1 ч. 32 м.
Общий поток : 6405 Кбит/сек
Название фильма : Rip by msltel
Дата кодирования : UTC 2017-06-08 02:25:59
Программа кодирования : mkvmerge v8.2.0 ('World of Adventure') 64bit
Библиотека кодирования : libebml v1.3.1 + libmatroska v1.4.2
Видео
Идентификатор : 1
Формат : AVC
Формат/Информация : Advanced Video Codec
Профиль формата : [email protected]
Параметр CABAC формата : Да
Параметр ReFrames формата : 9 кадров
Идентификатор кодека : V_MPEG4/ISO/AVC
Продолжительность : 1 ч. 32 м.
Битрейт : 5315 Кбит/сек
Ширина : 1280 пикселей
Высота : 694 пикселя
Соотношение сторон : 1,85:1
Режим частоты кадров : Постоянный
Частота кадров : 23,976 (24000/1001) кадра/сек
Цветовое пространство : YUV
Субдискретизация насыщенности : 4:2:0
Битовая глубина : 8 бит
Тип развёртки : Прогрессивная
Бит/(Пиксели*Кадры) : 0.250
Размер потока : 3,44 Гбайт (83%)
Библиотека кодирования : x264 core 146 r2538 121396c
Настройки программы : cabac=1 / ref=9 / deblock=1:-3:-2 / analyse=0x3:0x113 / me=umh / subme=11 / psy=1 / psy_rd=1.00:0.15 / mixed_ref=1 / me_range=32 / chroma_me=1 / trellis=2 / 8x8dct=1 / cqm=0 / deadzone=21,11 / fast_pskip=0 / chroma_qp_offset=-3 / threads=6 / lookahead_threads=1 / sliced_threads=0 / nr=0 / decimate=1 / interlaced=0 / bluray_compat=0 / constrained_intra=0 / bframes=7 / b_pyramid=2 / b_adapt=2 / b_bias=0 / direct=1 / weightb=1 / open_gop=0 / weightp=2 / keyint=230 / keyint_min=23 / scenecut=40 / intra_refresh=0 / rc_lookahead=40 / rc=crf / mbtree=0 / crf=18.0 / qcomp=0.60 / qpmin=0 / qpmax=69 / qpstep=4 / vbv_maxrate=62500 / vbv_bufsize=78125 / crf_max=0.0 / nal_hrd=none / filler=0 / ip_ratio=1.40 / pb_ratio=1.30 / aq=1:1.00
Язык : English
Default : Да
Forced : Нет
Аудио #1
Идентификатор : 2
Формат : AC-3
Формат/Информация : Audio Coding 3
Параметр Endianness формата : Big
Идентификатор кодека : A_AC3
Продолжительность : 1 ч. 32 м.
Вид битрейта : Постоянный
Битрейт : 448 Кбит/сек
Каналы : 6 каналов
Расположение каналов : Front: L C R, Side: L R, LFE
Частота : 48,0 КГц
Частота кадров : 31,250 кадров/сек (1536 spf)
Битовая глубина : 16 бит
Метод сжатия : С потерями
Размер потока : 297 Мбайт (7%)
Заголовок : MVO
Язык : Russian
Default : Да
Forced : Нет
Аудио #2
Идентификатор : 3
Формат : AC-3
Формат/Информация : Audio Coding 3
Параметр Endianness формата : Big
Идентификатор кодека : A_AC3
Продолжительность : 1 ч. 32 м.
Вид битрейта : Постоянный
Битрейт : 192 Кбит/сек
Каналы : 2 канала
Расположение каналов : Front: L R
Частота : 48,0 КГц
Частота кадров : 31,250 кадров/сек (1536 spf)
Битовая глубина : 16 бит
Метод сжатия : С потерями
Размер потока : 127 Мбайт (3%)
Заголовок : MVO (CTC)
Язык : Russian
Default : Нет
Forced : Нет
Аудио #3
Идентификатор : 4
Формат : AC-3
Формат/Информация : Audio Coding 3
Параметр Endianness формата : Big
Идентификатор кодека : A_AC3
Продолжительность : 1 ч. 32 м.
Вид битрейта : Постоянный
Битрейт : 448 Кбит/сек
Каналы : 6 каналов
Расположение каналов : Front: L C R, Side: L R, LFE
Частота : 48,0 КГц
Частота кадров : 31,250 кадров/сек (1536 spf)
Битовая глубина : 16 бит
Метод сжатия : С потерями
Размер потока : 297 Мбайт (7%)
Заголовок : original
Язык : English
Default : Нет
Forced : Нет
Текст #1
Идентификатор : 5
Формат : UTF-8
Идентификатор кодека : S_TEXT/UTF8
Идентификатор кодека/Информация : UTF-8 Plain Text
Продолжительность : 1 ч. 29 м.
Битрейт : 75 бит/сек
ElementCount : 1099
Размер потока : 49,1 Кбайт (0%)
Заголовок : русские
Язык : Russian
Default : Нет
Forced : Нет
Текст #2
Идентификатор : 6
Формат : UTF-8
Идентификатор кодека : S_TEXT/UTF8
Идентификатор кодека/Информация : UTF-8 Plain Text
Продолжительность : 1 ч. 29 м.
Битрейт : 60 бит/сек
ElementCount : 1256
Размер потока : 39,5 Кбайт (0%)
Заголовок : английские
Язык : English
Default : Нет
Forced : Нет
Меню
00:00:00.000 : en:00:00:00.000
00:01:38.682 : en:00:01:38.682
00:04:23.555 : en:00:04:23.555
00:07:18.980 : en:00:07:18.980
00:11:42.327 : en:00:11:42.327
00:15:12.870 : en:00:15:12.870
00:22:54.748 : en:00:22:54.748
00:31:34.768 : en:00:31:34.768
00:41:05.672 : en:00:41:05.672
00:43:52.088 : en:00:43:52.088
00:53:45.597 : en:00:53:45.597
00:58:11.988 : en:00:58:11.988
01:01:19.467 : en:01:01:19.467
01:10:22.844 : en:01:10:22.844
01:15:43.831 : en:01:15:43.831
01:18:17.109 : en:01:18:17.109
01:26:28.433 : en:01:26:28.433
01:29:26.987 : en:01:29:26.987

Скриншоты


If you like the topic, please click share to help develop our site.

To download the file disable ad blocking, and reload the page.

disable adblock How to disable ad blocking?

Download by magnet link 4.14 GB Download Torrent

Login using:

Similar topics

Шестнадцать свечей / Sixteen Candles (1984) BDRip 1080p | Р
 10.14 GB   0 | 0   08-Jun-17 14:30   0


   
Current time is: 25-May 18:31 :: All times are UTC + 3