Форсаж 8 / The Fate of the Furious
«Их дороги расходятся»
- Год выхода: 2017
Выпущено: США / Universal Pictures
Жанр: боевик, триллер, криминал, приключения
Продолжительность: 02:15:57
Перевод: Профессиональный (полное дублирование)
Субтитры: Русские (форсированные) (внешние .srt*)-Режиссер:
Ф. Гэри Грей / F. Gary Gray-В ролях:
Вин Дизель, Дуэйн Джонсон, Джейсон Стэйтем, Мишель Родригес, Тайриз Гибсон, Лудакрис, Натали Эммануэль, Курт Рассел, Скотт Иствуд, Шарлиз Терон, Хелен Миррен, Эльза Патаки, Люк Эванс, Кристофер Хивью-О фильме:
Пристегните ремни — гонка продолжается. Гавана, Берлин, Нью-Йорк — для самой крутой команды в мире нет ничего невозможного, пока они вместе. Но когда на их пути окажется одна из самых красивых женщин на планете и по совместительству королева киберпреступности, дороги друзей разойдутся.-Релиз групп | | IMDB | КиноПоиск | Сэмпл |-Качество: WEB-DLRip [The.Fate.of.the.Furious.2017.1080p.WEB-DL.AAC2.0.H264-FGT]
Формат: AVI
Видео: 704x288 (2.44:1), 23.976 fps, XviD build 67 ~1336 kbps avg, 0.28 bit/pixel
Аудио: 48 kHz, AC3 Dolby Digital, 2/0 (L,R) ch, ~192 kbps avg
-

Скриншоты

-

MediaInfo

Общее
Полное имя                               : D:\Forsazh_8_2017_WEB-DLRip_iT_by_Dalemake.avi
Формат                                   : AVI
Формат/Информация                        : Audio Video Interleave
Размер файла                             : 1,46 Гбайт
Продолжительность                        : 2 ч. 15 м.
Общий поток                              : 1538 Кбит/сек
Программа кодирования                    : VirtualDubMod 1.5.10.3 | www.virtualdub-fr.org || (build 2550/release)
Библиотека кодирования                   : VirtualDubMod build 2550/release
Видео
Идентификатор                            : 0
Формат                                   : MPEG-4 Visual
Профиль формата                          : Advanced [email protected]
Параметр BVOP формата                    : 1
Параметр QPel формата                    : Нет
Параметр GMC формата                     : Без точки перехода
Параметр матрицы формата                 : Выборочная
Идентификатор кодека                     : XVID
Идентификатор кодека/Подсказка           : XviD
Продолжительность                        : 2 ч. 15 м.
Битрейт                                  : 1337 Кбит/сек
Ширина                                   : 704 пикселя
Высота                                   : 288 пикселей
Соотношение сторон                       : 2,40:1
Частота кадров                           : 23,976 кадра/сек
Цветовое пространство                    : YUV
Субдискретизация насыщенности            : 4:2:0
Битовая глубина                          : 8 бит
Тип развёртки                            : Прогрессивная
Метод сжатия                             : С потерями
Бит/(Пиксели*Кадры)                      : 0.275
Размер потока                            : 1,27 Гбайт (87%)
Библиотека кодирования                   : XviD 67
Аудио
Идентификатор                            : 1
Формат                                   : AC-3
Формат/Информация                        : Audio Coding 3
Расширение режима                        : CM (complete main)
Параметр Endianness формата              : Big
Идентификатор кодека                     : 2000
Продолжительность                        : 2 ч. 15 м.
Вид битрейта                             : Постоянный
Битрейт                                  : 192 Кбит/сек
Каналы                                   : 2 канала
Расположение каналов                     : Front: L R
Частота                                  : 48,0 КГц
Битовая глубина                          : 16 бит
Метод сжатия                             : С потерями
Размер потока                            : 187 Мбайт (12%)
Выравнивание                             : Разделение по промежуткам
Продолжительность промежутка             : 42  мс. (1,00 видеокадр)
Время предзагрузки промежутка            : 500  мс.
-

If you like the topic, please click share to help develop our site.

To download the file disable ad blocking, and reload the page.

disable adblock How to disable ad blocking?

Download by magnet link 1.46 GB Download Torrent

Login using:

Similar topics



   
Current time is: 27-May 02:04 :: All times are UTC + 3