Рейд тигров / Tiger Raid
Страна: Великобритания, Ирландия
Жанр: Боевик, триллер, драма, военный
Год выпуска: 2016
Продолжительность: 01:31:34
Перевод: Любительский (двухголосый закадровый) | datynet & Galina Vasyukova; перевод: Куценко
Субтитры: нет
Оригинальная аудиодорожка: нет-Режиссер: Саймон Диксон / Simon Dixon-В ролях: Брин Глисон, Дэмиен Молони, София Бутелла, Рори Флек-Бирн, Эван Хадер, Маджид Рахан, Муртада Дахел, Халед Саббаг-Описание: Двое наемников, окрыленные духом товарищества, отправляются на машине сквозь пустыню, чтобы выполнить заказ – похитить одного человека в Ираке и доставить его в заранее указанное место. На протяжении всего путешествия, они начинают разбираться в себе и выпускают наружу все скрытые ранее чувства и мысли. В процессе их взгляды на жизнь и собственные взаимоотношения оборачиваются кромешным адом из которого вырваться не так уж и просто.- -Качество видео: WEB-DLRip
Формат видео: AVI
Видео: 720x304 (2.37:1), 24.000 fps, XviD build 73 ~2075 kbps avg, 0.40 bit/pixel
Аудио: 48 kHz, AC3 Dolby Digital, 2/0 (L,R) ch, ~192 kbps-Сэмпл-

MediaInfo

Format                      : AVI
Format/Info                 : Audio Video Interleave
File size                   : 1.46 GiB
Duration                    : 1 h 31 min
Overall bit rate            : 2 277 kb/s
Writing application         : VirtualDubMod 1.5.10.3 | www.virtualdub-fr.org || (build 2550/release)
Writing library             : VirtualDubMod build 2550/release
Video
ID                          : 0
Format                      : MPEG-4 Visual
Format profile              : Advanced [email protected]
Format settings, BVOP       : 1
Format settings, QPel       : No
Format settings, GMC        : No warppoints
Format settings, Matrix     : Custom
Codec ID                    : DX50
Codec ID/Hint               : DivX 5
Duration                    : 1 h 31 min
Bit rate                    : 2 075 kb/s
Width                       : 720 pixels
Height                      : 304 pixels
Display aspect ratio        : 2.35:1
Frame rate                  : 24.000 FPS
Color space                 : YUV
Chroma subsampling          : 4:2:0
Bit depth                   : 8 bits
Scan type                   : Progressive
Compression mode            : Lossy
Bits/(Pixel*Frame)          : 0.395
Stream size                 : 1.33 GiB (91%)
Writing library             : XviD 73
Audio
ID                          : 1
Format                      : AC-3
Format/Info                 : Audio Coding 3
Format settings, Endianness : Big
Codec ID                    : 2000
Duration                    : 1 h 31 min
Bit rate mode               : Constant
Bit rate                    : 192 kb/s
Channel(s)                  : 2 channels
Channel positions           : Front: L R
Sampling rate               : 48.0 kHz
Frame rate                  : 31.250 FPS (1536 spf)
Bit depth                   : 16 bits
Compression mode            : Lossy
Stream size                 : 126 MiB (8%)
Alignment                   : Split accross interleaves
Interleave, duration        : 42  ms (1.00 video frame)
Interleave, preload duratio : 500  ms
Service kind                : Complete Main

Скриншоты


If you like the topic, please click share to help develop our site.

To download the file disable ad blocking, and reload the page.

disable adblock How to disable ad blocking?

Download by magnet link 1.46 GB Download Torrent

Login using:

Similar topics



   
Current time is: 27-May 02:39 :: All times are UTC + 3