Женщины ХХ века / 20th Century Women
Страна: США
Жанр: драма, комедия
Год выпуска: 2016
Продолжительность: 01:58:44
Перевод: Профессиональный (многоголосый закадровый) - iTunes
Субтитры: нет
Оригинальная аудиодорожка: нет-Режиссер: Майк Миллс / Mike Mills-В ролях: Аннетт Бенинг, Эль Фаннинг, Грета Гервиг, Билли Крудап, Лукас Джейд Зуманн, Элисон Эллиотт, Теа Гилл, Виталий Эндрю ЛеБо, Olivia Hone, Валид Зуэйтер-Описание: История о трех женщинах, которые познают любовь и свободу в Южной Калифорнии в конце 1970-х годов.-Качество видео: BDRip | 20TH_CENTURY_WOMEN_REMUX_HDCLUB
Формат видео: AVI
Видео: 704x352 (2.00:1), 23.976 fps, XviD build 73 ~1365 kbps avg, 0.23 bit/pixel
Аудио: 48 kHz, AC3 Dolby Digital, 3/2 (L,C,R,l,r) + LFE ch, ~384 kbps-Сэмпл-

MediaInfo

Format                      : AVI
Format/Info                 : Audio Video Interleave
File size                   : 1.46 GiB
Duration                    : 1 h 58 min
Overall bit rate            : 1 759 kb/s
Writing application         : VirtualDubMod 1.5.10.3 | www.virtualdub-fr.org || (build 2550/release)
Writing library             : VirtualDubMod build 2550/release
Video
ID                          : 0
Format                      : MPEG-4 Visual
Format profile              : Advanced [email protected]
Format settings, BVOP       : 1
Format settings, QPel       : No
Format settings, GMC        : No warppoints
Format settings, Matrix     : Custom
Codec ID                    : DX50
Codec ID/Hint               : DivX 5
Duration                    : 1 h 58 min
Bit rate                    : 1 366 kb/s
Width                       : 704 pixels
Height                      : 352 pixels
Display aspect ratio        : 2.000
Frame rate                  : 23.976 (24000/1001) FPS
Color space                 : YUV
Chroma subsampling          : 4:2:0
Bit depth                   : 8 bits
Scan type                   : Progressive
Compression mode            : Lossy
Bits/(Pixel*Frame)          : 0.230
Stream size                 : 1.13 GiB (78%)
Writing library             : XviD 73
Audio
ID                          : 1
Format                      : AC-3
Format/Info                 : Audio Coding 3
Format settings, Endianness : Big
Codec ID                    : 2000
Duration                    : 1 h 58 min
Bit rate mode               : Constant
Bit rate                    : 384 kb/s
Channel(s)                  : 6 channels
Channel positions           : Front: L C R, Side: L R, LFE
Sampling rate               : 48.0 kHz
Frame rate                  : 31.250 FPS (1536 spf)
Bit depth                   : 16 bits
Compression mode            : Lossy
Stream size                 : 326 MiB (22%)
Alignment                   : Split accross interleaves
Interleave, duration        : 42  ms (1.00 video frame)
Interleave, preload duratio : 500  ms
Service kind                : Complete Main

Скриншоты


If you like the topic, please click share to help develop our site.

To download the file disable ad blocking, and reload the page.

disable adblock How to disable ad blocking?

Download by magnet link 1.46 GB Download Torrent

Login using:

Similar topics



   
Current time is: 27-May 03:21 :: All times are UTC + 3