Живое / Life
«Умное. Сильное. Бездушное»
- Год выхода: 2017
Выпущено: США / Columbia Pictures
Жанр: ужасы, фантастика, триллер
Продолжительность: 01:43:57
Перевод: Профессиональный (полное дублирование)
Субтитры: Русские (форсированные + полные), Английские (форсированные + полные) (.srt*)
Оригинальная аудиодорожка: Английская-Режиссер:
Даниэль Эспиноса / Daniel Espinosa-В ролях:
Хироюки Санада (Sho Murakami), Райан Рейнольдс (Rory Adams), Ребекка Фергюсон (Miranda North), Джейк Джилленхол (David Jordan), Ольга Дыховичная (Ekaterina Golovkina), Эрион Бакаре (Hugh Derry), Хесус Дель Орден (Student 2), Аллен МакЛин (Student 1), Лейла Грэйс Боствик-Ридделл (Student 3), Мари Гвелесиани (Student 4)-О фильме:
Группа исследователей с международного космического корабля обнаруживает жизнь на Марсе. Они еще не подозревают, какие события повлечет за собой их открытие.-Релиз групп | | IMDB | КиноПоиск | Сэмпл |-Качество: WEB-DLRip-AVC [Life.2017.1080p.WEB-DL.H264.AC3-EVO]
Формат: MKV
Видео: 1136x472 (2.40:1), 23.976 fps, x264 ~1273 kbps avg, 0.099 bit/pixel
Аудио #1: 48 kHz, AC3 Dolby Digital, 3/2 (L,C,R,l,r) + LFE ch, ~384.00 kbps avg (RUS) - iTunes Russia
Аудио #2: 48 kHz, AC3 Dolby Digital, 3/2 (L,C,R,l,r) + LFE ch, ~384.00 kbps avg (ENG)
-

Скриншоты

-

MediaInfo

Общее
Полное имя                               : D:\Zhivoe_2017_WEB-DLRip-AVC_iT_by_Dalemake.mkv
Формат                                   : Matroska
Версия формата                           : Version 4 / Version 2
Размер файла                             : 1,51 Гбайт
Продолжительность                        : 1 ч. 43 м.
Общий поток                              : 2082 Кбит/сек
Название фильма                          : [Life_2017_All Films_by Dalemake]
Дата кодирования                         : UTC 2017-06-05 21:08:34
Программа кодирования                    : mkvmerge v7.8.0 ('River Man') 32bit built on Apr  3 2015 12:11:22
Библиотека кодирования                   : libebml v1.3.1 + libmatroska v1.4.2
DURATION                                 : 01:33:32.571000000
NUMBER_OF_FRAMES                         : 37
NUMBER_OF_BYTES                          : 1480
_STATISTICS_WRITING_APP                  : mkvmerge v7.8.0 ('River Man') 32bit built on Apr  3 2015 12:11:22
_STATISTICS_WRITING_DATE_UTC             : 2017-06-05 21:08:34
_STATISTICS_TAGS                         : BPS DURATION NUMBER_OF_FRAMES NUMBER_OF_BYTES
Видео
Идентификатор                            : 1
Формат                                   : AVC
Формат/Информация                        : Advanced Video Codec
Профиль формата                          : [email protected]
Параметр CABAC формата                   : Да
Параметр ReFrames формата                : 8 кадров
Идентификатор кодека                     : V_MPEG4/ISO/AVC
Продолжительность                        : 1 ч. 43 м.
Битрейт                                  : 1273 Кбит/сек
Ширина                                   : 1136 пикселей
Высота                                   : 472 пикселя
Соотношение сторон                       : 2,40:1
Частота кадров                           : 23,976 кадра/сек
Цветовое пространство                    : YUV
Субдискретизация насыщенности            : 4:2:0
Битовая глубина                          : 8 бит
Тип развёртки                            : Прогрессивная
Бит/(Пиксели*Кадры)                      : 0.099
Размер потока                            : 947 Мбайт (61%)
Заголовок                                : [Life_2017_All Films_by Dalemake]
Библиотека кодирования                   : x264 core 146 r2538 121396c
Настройки программы                      : cabac=1 / ref=8 / deblock=1:-2:-1 / analyse=0x3:0x133 / me=umh / subme=11 / psy=1 / psy_rd=1.00:0.00 / mixed_ref=1 / me_range=48 / chroma_me=1 / trellis=2 / 8x8dct=1 / cqm=0 / deadzone=21,11 / fast_pskip=1 / chroma_qp_offset=-4 / threads=6 / lookahead_threads=1 / sliced_threads=0 / nr=0 / decimate=0 / interlaced=0 / bluray_compat=0 / constrained_intra=0 / bframes=9 / b_pyramid=2 / b_adapt=2 / b_bias=0 / direct=1 / weightb=1 / open_gop=0 / weightp=2 / keyint=240 / keyint_min=23 / scenecut=40 / intra_refresh=0 / rc_lookahead=60 / rc=crf / mbtree=0 / crf=20.1 / qcomp=0.60 / qpmin=0 / qpmax=69 / qpstep=4 / vbv_maxrate=50000 / vbv_bufsize=62500 / crf_max=0.0 / nal_hrd=none / filler=0 / ip_ratio=1.40 / pb_ratio=1.35 / aq=1:1.00
Default                                  : Да
Forced                                   : Нет
Аудио #1
Идентификатор                            : 2
Формат                                   : AC-3
Формат/Информация                        : Audio Coding 3
Расширение режима                        : CM (complete main)
Параметр Endianness формата              : Big
Идентификатор кодека                     : A_AC3
Продолжительность                        : 1 ч. 43 м.
Вид битрейта                             : Постоянный
Битрейт                                  : 384 Кбит/сек
Каналы                                   : 6 каналов
Расположение каналов                     : Front: L C R, Side: L R, LFE
Частота                                  : 48,0 КГц
Битовая глубина                          : 16 бит
Метод сжатия                             : С потерями
Размер потока                            : 286 Мбайт (18%)
Заголовок                                : Dub - iTunes Russia
Язык                                     : Russian
Default                                  : Да
Forced                                   : Нет
Аудио #2
Идентификатор                            : 3
Формат                                   : AC-3
Формат/Информация                        : Audio Coding 3
Расширение режима                        : CM (complete main)
Параметр Endianness формата              : Big
Идентификатор кодека                     : A_AC3
Продолжительность                        : 1 ч. 43 м.
Вид битрейта                             : Постоянный
Битрейт                                  : 384 Кбит/сек
Каналы                                   : 6 каналов
Расположение каналов                     : Front: L C R, Side: L R, LFE
Частота                                  : 48,0 КГц
Битовая глубина                          : 16 бит
Метод сжатия                             : С потерями
Размер потока                            : 286 Мбайт (18%)
Заголовок                                : Original
Язык                                     : English
Default                                  : Нет
Forced                                   : Нет
Текст #1
Идентификатор                            : 4
Формат                                   : UTF-8
Идентификатор кодека                     : S_TEXT/UTF8
Идентификатор кодека/Информация          : UTF-8 Plain Text
Заголовок                                : Forced
Язык                                     : Russian
Default                                  : Да
Forced                                   : Нет
Текст #2
Идентификатор                            : 5
Формат                                   : UTF-8
Идентификатор кодека                     : S_TEXT/UTF8
Идентификатор кодека/Информация          : UTF-8 Plain Text
Заголовок                                : Full
Язык                                     : Russian
Default                                  : Нет
Forced                                   : Нет
Текст #3
Идентификатор                            : 6
Формат                                   : UTF-8
Идентификатор кодека                     : S_TEXT/UTF8
Идентификатор кодека/Информация          : UTF-8 Plain Text
Заголовок                                : Forced
Язык                                     : English
Default                                  : Нет
Forced                                   : Нет
Текст #4
Идентификатор                            : 7
Формат                                   : UTF-8
Идентификатор кодека                     : S_TEXT/UTF8
Идентификатор кодека/Информация          : UTF-8 Plain Text
Заголовок                                : Full
Язык                                     : English
Default                                  : Нет
Forced                                   : Нет
-

If you like the topic, please click share to help develop our site.

To download the file disable ad blocking, and reload the page.

disable adblock How to disable ad blocking?

Download by magnet link 1.51 GB Download Torrent

Login using:

Similar topics



   
Current time is: 27-May 03:13 :: All times are UTC + 3