Живое / Life
«Умное. Сильное. Бездушное»
- Год выхода: 2017
Выпущено: США / Columbia Pictures
Жанр: ужасы, фантастика, триллер
Продолжительность: 01:43:57
Перевод: Профессиональный (полное дублирование)
Субтитры: Русские (форсированные) (внешние .srt*)-Режиссер:
Даниэль Эспиноса / Daniel Espinosa-В ролях:
Хироюки Санада (Sho Murakami), Райан Рейнольдс (Rory Adams), Ребекка Фергюсон (Miranda North), Джейк Джилленхол (David Jordan), Ольга Дыховичная (Ekaterina Golovkina), Эрион Бакаре (Hugh Derry), Хесус Дель Орден (Student 2), Аллен МакЛин (Student 1), Лейла Грэйс Боствик-Ридделл (Student 3), Мари Гвелесиани (Student 4)-О фильме:
Группа исследователей с международного космического корабля обнаруживает жизнь на Марсе. Они еще не подозревают, какие события повлечет за собой их открытие.-Релиз групп | | IMDB | КиноПоиск | Сэмпл |-Качество: WEB-DLRip [Life.2017.1080p.WEB-DL.H264.AC3-EVO]
Формат: AVI
Видео: 720x304 (2.37:1), 23.976 fps, XviD build 67 ~1644 kbps avg, 0.31 bit/pixel
Аудио: 48 kHz, AC3 Dolby Digital, 3/2 (L,C,R,l,r) + LFE ch, ~384 kbps avg - iTunes Russia
-

Скриншоты

-

MediaInfo

Общее
Полное имя                               : D:\Zhivoe_2017_WEB-DLRip_iT_by_Dalemake.avi
Формат                                   : AVI
Формат/Информация                        : Audio Video Interleave
Размер файла                             : 1,48 Гбайт
Продолжительность                        : 1 ч. 43 м.
Общий поток                              : 2038 Кбит/сек
Программа кодирования                    : VirtualDubMod 1.5.10.3 | www.virtualdub-fr.org || (build 2550/release)
Библиотека кодирования                   : VirtualDubMod build 2550/release
Видео
Идентификатор                            : 0
Формат                                   : MPEG-4 Visual
Профиль формата                          : Advanced [email protected]
Параметр BVOP формата                    : 1
Параметр QPel формата                    : Нет
Параметр GMC формата                     : Без точки перехода
Параметр матрицы формата                 : Выборочная
Идентификатор кодека                     : XVID
Идентификатор кодека/Подсказка           : XviD
Продолжительность                        : 1 ч. 43 м.
Битрейт                                  : 1645 Кбит/сек
Ширина                                   : 720 пикселей
Высота                                   : 304 пикселя
Соотношение сторон                       : 2,35:1
Частота кадров                           : 23,976 кадра/сек
Цветовое пространство                    : YUV
Субдискретизация насыщенности            : 4:2:0
Битовая глубина                          : 8 бит
Тип развёртки                            : Прогрессивная
Метод сжатия                             : С потерями
Бит/(Пиксели*Кадры)                      : 0.313
Размер потока                            : 1,19 Гбайт (81%)
Библиотека кодирования                   : XviD 67
Аудио
Идентификатор                            : 1
Формат                                   : AC-3
Формат/Информация                        : Audio Coding 3
Расширение режима                        : CM (complete main)
Параметр Endianness формата              : Big
Идентификатор кодека                     : 2000
Продолжительность                        : 1 ч. 43 м.
Вид битрейта                             : Постоянный
Битрейт                                  : 384 Кбит/сек
Каналы                                   : 6 каналов
Расположение каналов                     : Front: L C R, Side: L R, LFE
Частота                                  : 48,0 КГц
Битовая глубина                          : 16 бит
Метод сжатия                             : С потерями
Размер потока                            : 286 Мбайт (19%)
Выравнивание                             : Разделение по промежуткам
Продолжительность промежутка             : 42  мс. (1,00 видеокадр)
Время предзагрузки промежутка            : 500  мс.
-

If you like the topic, please click share to help develop our site.

To download the file disable ad blocking, and reload the page.

disable adblock How to disable ad blocking?

Download by magnet link 1.48 GB Download Torrent

Login using:

Similar topics



   
Current time is: 25-May 17:54 :: All times are UTC + 3