Однажды в Германии / Es war einmal in Deutschland...
Страна: Германия, Люксембург, Бельгия
Жанр: драма, комедия, военный
Год выпуска: 2017
Продолжительность: 01:42:07
Перевод: Профессиональный (многоголосый закадровый) | iTunes
Субтитры: нет
Оригинальная аудиодорожка: нет-Режиссер:
Сэм Гарбарски / Sam Garbarski-В ролях:
Мориц Бляйбтрой, Антье Трауэ, Тим Сейфи, Марк Иванир, Анатоль Таубман, Ганс Лёв, Паль Мачаи, Вацлав Якоубек, Джинн Вернер, Йоахим Пауль Ассбёк-Описание:
Франкфурт, 1946 год. Предприимчивый Давид Берманн и шестеро его друзей избежали ужасов нацистского режима и теперь мечтают эмигрировать в Америку. Когда заветная мечта вот-вот станет явью, прошлое Давида привлекает внимание бескомпромиссной Сары Саймон, представителя американских войск в Германии. Она подозревает Берманна в сотрудничестве с нацистским режимом и всеми силами пытается вывести его на чистую воду. Но даже «железная» женщина не в силах устоять перед его шармом…-Качество видео: WEB-DLRip
Формат видео: AVI
Видео: 720x400 (1.80:1), 24 fps, XviD build 50 ~1649 kbps avg, 0.24 bit/pixel
Аудио: 48 kHz, AC3 Dolby Digital, 2/0 (L,R) ch, ~384 kbps-Сэмпл-

MediaInfo

Format                      : AVI
Format/Info                 : Audio Video Interleave
File size                   : 1.46 GiB
Duration                    : 1 h 42 min
Overall bit rate            : 2 043 kb/s
Writing application         : VirtualDubMod 1.5.10.2 (build 2540/release)
Writing library             : VirtualDubMod build 2540/release
Video
ID                          : 0
Format                      : MPEG-4 Visual
Format profile              : Advanced [email protected]
Format settings, BVOP       : 2
Format settings, QPel       : No
Format settings, GMC        : No warppoints
Format settings, Matrix     : Default (MPEG)
Codec ID                    : XVID
Codec ID/Hint               : XviD
Duration                    : 1 h 42 min
Bit rate                    : 1 650 kb/s
Width                       : 720 pixels
Height                      : 400 pixels
Display aspect ratio        : 16:9
Frame rate                  : 24.000 FPS
Color space                 : YUV
Chroma subsampling          : 4:2:0
Bit depth                   : 8 bits
Scan type                   : Progressive
Compression mode            : Lossy
Bits/(Pixel*Frame)          : 0.239
Stream size                 : 1.18 GiB (81%)
Writing library             : XviD 1.2.1 (UTC 2008-12-04)
Audio
ID                          : 1
Format                      : AC-3
Format/Info                 : Audio Coding 3
Format settings, Endianness : Big
Codec ID                    : 2000
Duration                    : 1 h 42 min
Bit rate mode               : Constant
Bit rate                    : 384 kb/s
Channel(s)                  : 2 channels
Channel positions           : Front: L R
Sampling rate               : 48.0 kHz
Frame rate                  : 31.250 FPS (1536 spf)
Bit depth                   : 16 bits
Compression mode            : Lossy
Stream size                 : 280 MiB (19%)
Alignment                   : Split accross interleaves
Interleave, duration        : 42  ms (1.00 video frame)
Interleave, preload duratio : 500  ms
Service kind                : Complete Main

Скриншоты


If you like the topic, please click share to help develop our site.

To download the file disable ad blocking, and reload the page.

disable adblock How to disable ad blocking?

Download by magnet link 1.46 GB Download Torrent

Login using:

Similar topics



   
Current time is: 25-May 18:30 :: All times are UTC + 3