День патриота / Patriots Day- Год выпуска: 2016
Выпущено: США / CBS Films
Жанр: триллер, драма, история
Продолжительность: 02:13:09
Перевод: Любительский (многоголосый закадровый) @[email protected]
Субтитры: Русские (форсированные) (внешние .ass)-Режиссер:
Питер Берг / Peter Berg-В ролях:
Марк Уолберг, Кевин Бейкон, Джон Гудман, Дж.К. Симмонс, Мишель Монахэн, Дикки Эклунд мл., Майкл Маршан, Рет Кидд, Френк Чарновски, Кристофер О’Ши-Описание:
Взгляд на бостонскую трагедию 2013 года глазами комиссара полиции Эда Дэвиса. Два взрыва на марафонском забеге оглушили мировую общественность, но не Эда и его коллег, которые разворачивают розыск террористов по горячим следам.-Релиз групп | | IMDB | КиноПоиск | Сэмпл |-Качество: BDRip [Patriots.Day.2016.1080p.Blu-ray.AVC.DTS-HD.MA.7.1-HDChina]
Формат: AVI
Видео: 720x304 (2.37:1), 23.976 fps, XviD build 67 ~1366 kbps avg, 0.26 bit/pixel
Аудио: 48 kHz, AC3 Dolby Digital, 2/0 (L,R) ch, ~192.00 kbps avg
-

Скриншоты

-

MediaInfo

Общее
Полное имя                               : D:\Den`_Patriota_2016_BDRip_MVO_by_Dalemake.avi
Формат                                   : AVI
Формат/Информация                        : Audio Video Interleave
Размер файла                             : 1,46 Гбайт
Продолжительность                        : 2 ч. 13 м.
Общий поток                              : 1568 Кбит/сек
Программа кодирования                    : VirtualDubMod 1.5.10.3 | www.virtualdub-fr.org || (build 2550/release)
Библиотека кодирования                   : VirtualDubMod build 2550/release
Видео
Идентификатор                            : 0
Формат                                   : MPEG-4 Visual
Профиль формата                          : Advanced [email protected]
Параметр BVOP формата                    : 1
Параметр QPel формата                    : Нет
Параметр GMC формата                     : Без точки перехода
Параметр матрицы формата                 : Выборочная
Идентификатор кодека                     : XVID
Идентификатор кодека/Подсказка           : XviD
Продолжительность                        : 2 ч. 13 м.
Битрейт                                  : 1367 Кбит/сек
Ширина                                   : 720 пикселей
Высота                                   : 304 пикселя
Соотношение сторон                       : 2,35:1
Частота кадров                           : 23,976 кадра/сек
Цветовое пространство                    : YUV
Субдискретизация насыщенности            : 4:2:0
Битовая глубина                          : 8 бит
Тип развёртки                            : Прогрессивная
Метод сжатия                             : С потерями
Бит/(Пиксели*Кадры)                      : 0.260
Размер потока                            : 1,27 Гбайт (87%)
Библиотека кодирования                   : XviD 67
Аудио
Идентификатор                            : 1
Формат                                   : AC-3
Формат/Информация                        : Audio Coding 3
Расширение режима                        : CM (complete main)
Параметр Endianness формата              : Big
Идентификатор кодека                     : 2000
Продолжительность                        : 2 ч. 13 м.
Вид битрейта                             : Постоянный
Битрейт                                  : 192 Кбит/сек
Каналы                                   : 2 канала
Расположение каналов                     : Front: L R
Частота                                  : 48,0 КГц
Битовая глубина                          : 16 бит
Метод сжатия                             : С потерями
Размер потока                            : 183 Мбайт (12%)
Выравнивание                             : Разделение по промежуткам
Продолжительность промежутка             : 42  мс. (1,00 видеокадр)
Время предзагрузки промежутка            : 500  мс.
-При появлении проф. перевода рип будет перезалит!-

If you like the topic, please click share to help develop our site.

To download the file disable ad blocking, and reload the page.

disable adblock How to disable ad blocking?

Download by magnet link 1.46 GB Download Torrent

Login using:

Similar topics

День патриота / Patriots Day (2016) BDRip 1080p | P, А
 19.37 GB   1 | 0   08-Aug-18 10:30   0


   
Current time is: 27-May 02:01 :: All times are UTC + 3