-На пятьдесят оттенков темнее / Fifty Shades Darkerc-Расширенная версия / Unrated Edition-«Мир роскоши и соблазна ждёт вас»- Страна: США
Жанр: драма, мелодрама
Год выпуска: 2016
Продолжительность: 02:11:28-Перевод: Профессиональный (дублированный) СЕЕ
Субтитры: русские (полные, форсированные), английские (полные, SDH)
Оригинальная аудиодорожка: английский-Режиссер: Джеймс Фоули / James Foley-В ролях: Дакота Джонсон, Джейми Дорнан, Эрик Джонсон, Элоиза Мамфорд, Белла Хиткот, Рита Ора, Люк Граймс, Виктор Расук, Макс Мартини, Брюс Олтмен
Описание: Пока Кристиан Грей борется со своими внутренними демонами, Анастейша Стил вынуждена противостоять гневу и зависти тех женщин, что были с Кристианом до нее.-| Сэмпл | IMDB | КиноПоиск |

Автор рипа: sociolog_melvas-Качество видео: BDRip (источник)
Формат видео: AVI
Видео: 720x304 (2.37:1), 23,976 fps, XviD build 65 ~1918 kbps avg, 0.36 bit/pixel
Аудио: 48 kHz, AC3 Dolby Digital, 3/2 (L,C,R,l,r) + LFE ch, ~448 kbps avg (RUS)
Аудио 2: 48 kHz, AC3 Dolby Digital, 3/2 (L,C,R,l,r) + LFE ch, ~448 kbps avg (ENG) (отдельно)
Формат субтитров: softsub (SRT)

MediaInfo

Общее
Полное имя : D:\torrents\Na.pyatdesyat.ottenkov.temnee.EC.2017.RUS.BDRip.XviD.AC3.-HQCLUB\Na.pyatdesyat.ottenkov.temnee.EC.2017.RUS.BDRip.XviD.AC3.-HQCLUB.avi
Формат : AVI
Формат/Информация : Audio Video Interleave
Профиль формата : OpenDML
Размер файла : 2,18 Гбайт
Продолжительность : 2 ч. 11 м.
Общий поток : 2373 Кбит/сек
Название фильма : На пятьдесят оттенков темнее / Fifty Shades Darker [Unrated] (2017) BDRip
Жанр : драма, мелодрама
Программа кодирования : VirtualDubMod 1.5.10.2 (build 2540/release)
Примечание : 02.06.2017
Видео
Идентификатор : 0
Формат : MPEG-4 Visual
Профиль формата : Advanced [email protected]
Параметр BVOP формата : 1
Параметр QPel формата : Нет
Параметр GMC формата : Без точки перехода
Параметр матрицы формата : Выборочная
Идентификатор кодека : XVID
Идентификатор кодека/Подсказка : XviD
Продолжительность : 2 ч. 11 м.
Битрейт : 1914 Кбит/сек
Ширина : 720 пикселей
Высота : 304 пикселя
Соотношение сторон : 2,35:1
Частота кадров : 23,976 (24000/1001) кадра/сек
Цветовое пространство : YUV
Субдискретизация насыщенности : 4:2:0
Битовая глубина : 8 бит
Тип развёртки : Прогрессивная
Метод сжатия : С потерями
Бит/(Пиксели*Кадры) : 0.365
Размер потока : 1,76 Гбайт (81%)
Библиотека кодирования : XviD 65
Аудио
Идентификатор : 1
Формат : AC-3
Формат/Информация : Audio Coding 3
Параметр Endianness формата : Big
Идентификатор кодека : 2000
Продолжительность : 2 ч. 11 м.
Вид битрейта : Постоянный
Битрейт : 448 Кбит/сек
Каналы : 6 каналов
Расположение каналов : Front: L C R, Side: L R, LFE
Частота : 48,0 КГц
Частота кадров : 31,250 кадров/сек (1536 spf)
Битовая глубина : 16 бит
Метод сжатия : С потерями
Размер потока : 421 Мбайт (19%)
Выравнивание : Разделение по промежуткам
Продолжительность промежутка : 42 мс. (1,00 видеокадр)
Время предзагрузки промежутка : 500 мс.
ServiceKind/String : Complete Main

Скриншот c названием фильма

Скриншоты


If you like the topic, please click share to help develop our site.

To download the file disable ad blocking, and reload the page.

disable adblock How to disable ad blocking?

Download by magnet link 2.59 GB Download Torrent

Login using:

Similar topics



   
Current time is: 27-May 03:18 :: All times are UTC + 3