Инкарнация / Inkarnacija / Incarnation
«unmask yourself»
Страна: Сербия
Жанр: мистика, триллер
Год выпуска: 2016
Продолжительность: 01:21:42
Перевод: Любительский (многоголосый закадровый) - @[email protected]
Субтитры: нет
Оригинальная аудиодорожка: сербская
Режиссер: Филип Ковачевич / Filip Kovačević
В ролях: Стоян Джорджевич, Дача Видосавльевич, Стен Зендор, Тихомир Станич, Жарко Степанов, Dejan Cicmilovic, Arsenije Arsic, Lazar Djukic, Vidan Dojcinovic, Amet Huseinovski.
Описание: Молодой парень просыпается на площади неизвестного города снова и снова — после каждой неудачной попытки убежать от четырех убийц в масках. Через бесконечную погоню он пытается восстановить свою личность и выяснить, кто и зачем его преследует.

Доп. информация:
Русский многоголосый перевод (с рекламой) взят из раздачи Аристократ-а на Kinozal
Сведение звуковой дорожки (без рекламы) под данный видеоряд - Arle-kino

Качество видео: WEB-DLRip
Формат видео: AVI
Видео: 720x400 (1.80:1), 25 fps, XviD build 50 ~2156 kbps avg, 0.30 bit/pixel
Аудио 1: 48 kHz, AC3 Dolby Digital, 2/0 (L,R) ch, ~192 kbps - Russian
Аудио 2: 48 kHz, AC3 Dolby Digital, 2/0 (L,R) ch, ~192 kbps - Serbian

MediaInfo

General
Complete name : D:\Public\Inkarnacija (2016) rus serb.avi
Format : AVI
Format/Info : Audio Video Interleave
File size : 1.46 GiB
Duration : 1h 21mn
Overall bit rate : 2 556 Kbps
Writing application : VirtualDubMod 1.5.10.2 (build 2540/release)
Writing library : VirtualDubMod build 2540/release
Video
ID : 0
Format : MPEG-4 Visual
Format profile : Advanced [email protected]
Format settings, BVOP : 1
Format settings, QPel : No
Format settings, GMC : No warppoints
Format settings, Matrix : Default (MPEG)
Codec ID : XVID
Codec ID/Hint : XviD
Duration : 1h 21mn
Bit rate : 2 158 Kbps
Width : 720 pixels
Height : 400 pixels
Display aspect ratio : 16:9
Frame rate : 25.000 fps
Color space : YUV
Chroma subsampling : 4:2:0
Bit depth : 8 bits
Scan type : Progressive
Compression mode : Lossy
Bits/(Pixel*Frame) : 0.300
Stream size : 1.23 GiB (84%)
Writing library : XviD 1.2.1 (UTC 2008-12-04)
Audio #1
ID : 1
Format : AC-3
Format/Info : Audio Coding 3
Mode extension : CM (complete main)
Codec ID : 2000
Duration : 1h 21mn
Bit rate mode : Constant
Bit rate : 192 Kbps
Channel(s) : 2 channels
Channel positions : Front: L R
Sampling rate : 48.0 KHz
Bit depth : 16 bits
Compression mode : Lossy
Stream size : 112 MiB (8%)
Alignment : Split accross interleaves
Interleave, duration : 40 ms (1.00 video frame)
Interleave, preload duration : 500 ms
Title : Russian
Audio #2
ID : 2
Format : AC-3
Format/Info : Audio Coding 3
Mode extension : CM (complete main)
Codec ID : 2000
Duration : 1h 21mn
Bit rate mode : Constant
Bit rate : 192 Kbps
Channel(s) : 2 channels
Channel positions : Front: L R
Sampling rate : 48.0 KHz
Bit depth : 16 bits
Compression mode : Lossy
Stream size : 112 MiB (8%)
Alignment : Split accross interleaves
Interleave, duration : 40 ms (1.00 video frame)
Interleave, preload duration : 500 ms
Title : Serbian

Скриншот c названием фильма

Скриншоты


If you like the topic, please click share to help develop our site.

To download the file disable ad blocking, and reload the page.

disable adblock How to disable ad blocking?

Download by magnet link 1.46 GB Download Torrent

Login using:

Similar topics



   
Current time is: 27-May 02:03 :: All times are UTC + 3