Основатель / The Founder
Страна: США
Жанр: драма, биография, история
Год выпуска: 2016
Продолжительность: 01:55:20
Перевод: Профессиональный (многоголосый закадровый) - Jaskier
Субтитры: нет
Оригинальная аудиодорожка: нет-Режиссер: Джон Ли Хэнкок / John Lee Hancock-В ролях: Майкл Китон, Ник Офферман, Джон Кэрролл Линч, Линда Карделлини, Б.Дж. Новак, Лора Дерн, Джастин Брук, Кэти Нилэнд, Патрик Уилсон, Грифф Ферст, Вилбур Фицджералд, Дэвид де Фриз-Описание: Фильм расскажет о жизни Рэя Крока, человека создавшего самую известную в мире сеть ресторанов быстрого обслуживания — McDonald`s.-Качество видео: HDRip
Формат видео: AVI
Видео: 720x304 (2.37:1), 23.976 fps, XviD build 73 ~1417 kbps avg, 0.27 bit/pixel
Аудио: 48 kHz, AC3 Dolby Digital, 3/2 (L,C,R,l,r) + LFE ch, ~384 kbps-Скачать сэмпл-

MediaInfo

Format                      : AVI
Format/Info                 : Audio Video Interleave
File size                   : 1.46 GiB
Duration                    : 1 h 55 min
Overall bit rate            : 1 811 kb/s
Writing application         : VirtualDubMod 1.5.10.3 | www.virtualdub-fr.org || (build 2550/release)
Writing library             : VirtualDubMod build 2550/release
Video
ID                          : 0
Format                      : MPEG-4 Visual
Format profile              : Advanced [email protected]
Format settings, BVOP       : 1
Format settings, QPel       : No
Format settings, GMC        : No warppoints
Format settings, Matrix     : Custom
Codec ID                    : DX50
Codec ID/Hint               : DivX 5
Duration                    : 1 h 55 min
Bit rate                    : 1 417 kb/s
Width                       : 720 pixels
Height                      : 304 pixels
Display aspect ratio        : 2.35:1
Frame rate                  : 23.976 (24000/1001) FPS
Color space                 : YUV
Chroma subsampling          : 4:2:0
Bit depth                   : 8 bits
Scan type                   : Progressive
Compression mode            : Lossy
Bits/(Pixel*Frame)          : 0.270
Stream size                 : 1.14 GiB (78%)
Writing library             : XviD 73
Audio
ID                          : 1
Format                      : AC-3
Format/Info                 : Audio Coding 3
Format settings, Endianness : Big
Codec ID                    : 2000
Duration                    : 1 h 55 min
Bit rate mode               : Constant
Bit rate                    : 384 kb/s
Channel(s)                  : 6 channels
Channel positions           : Front: L C R, Side: L R, LFE
Sampling rate               : 48.0 kHz
Frame rate                  : 31.250 FPS (1536 spf)
Bit depth                   : 16 bits
Compression mode            : Lossy
Stream size                 : 317 MiB (21%)
Alignment                   : Split accross interleaves
Interleave, duration        : 42  ms (1.00 video frame)
Interleave, preload duratio : 500  ms
Service kind                : Complete Main

Скриншоты


If you like the topic, please click share to help develop our site.

To download the file disable ad blocking, and reload the page.

disable adblock How to disable ad blocking?

Download by magnet link 1.46 GB Download Torrent

Login using:

Similar topics

Основатель / The Founder (2016) BDRip 720p | P, A
 5.74 GB   4 | 0   16-Apr-18 14:30   1
Основатель / The Founder (2016) BDRip 1080p | L
 8.99 GB   12 | 0   06-May-17 10:30   1


   
Current time is: 25-May 18:36 :: All times are UTC + 3