Лекарство от здоровья / A Cure for Wellness- Страна: Германия, США
Жанр: ужасы, фэнтези, триллер, драма, детектив
Год выпуска: 2016
Продолжительность: 02:26:33
Перевод: Любительский (многоголосый, закадровый) (Paradox & Omskbird Records) - присутствует ненормативная лексика
Оригинальная аудиодорожка: английский
Субтитры: английские (полные, SDH)
Навигация по главам: есть
Режиссер: Гор Вербински / Gore Verbinski
В ролях: Дэйн ДеХаан (Lockhart), Джейсон Айзекс (Volmer), Миа Гот (Hannah), Иво Нанди (Enrico), Адриан Шиллер (Deputy Director), Селия Имри (Victoria Watkins), Гарри Гронер (Pembroke), Томас Норстрем (Frank Hill), Ашок Манданна (Ron Nair), Магнус Креппер (Pieter The Vet), Питер Бенедикт (Constable), Михаэль Мендль (Bartender)
Описание: Молодой амбициозный сотрудник отправляется в затерянный в швейцарских Альпах оздоровительный центр, чтобы вернуть оттуда руководителя своей компании. Но по прибытии он понимает, что чудодейственные процедуры спа-салона вовсе не те, чем кажутся. В то время как парень начинает распутывать страшные тайны этого места, его здравый ум проходит настоящую проверку на прочность. Похоже, теперь он страдает той же странной болезнью, по причине которой здесь остаются другие гости центра, желающие получить свою дозу лекарства.- -Качество: BDRip-AVC (исходник - A.Cure.for.Wellness.2016.1080p.BluRay.REMUX.AVC.DTS-HD.MA.7.1-FGT)
Формат видео: MKV
Видео: x264, 1024x576 (16:9) 23,976 fps, ~1562 kbps, 0.111 bit/pixel
Аудио 1: 48 kHz, AC3 Dolby Digital, 5.1 (Front: L C R, Side: L R, LFE) ch, ~384 kbps, [русский]
Аудио 2: 48 kHz, AC3 Dolby Digital, 2.0 (Front: L R) ch, ~192 kbps, [английский]
Формат субтитров: softsub (SRT)-

MediaInfo | x264 log

Format : Matroska
Format version : Version 4 / Version 2
File size : 2.23 GiB
Duration : 2h 26 min
Overall bit rate : 2 182 kb/s
Movie name : Лекарство от здоровья / A Cure for Wellness (2016) :: AFM ::
Encoded date : UTC 2017-06-02 06:37:15
Writing application : mkvmerge v8.3.0 ('Over the Horizon') 32bit
Writing library : libebml v1.3.1 + libmatroska v1.4.2
Video
ID : 1
Format : AVC
Format/Info : Advanced Video Codec
Format profile : [email protected]
Format settings, CABAC : Yes
Format settings, ReFrames : 12 frames
Codec ID : V_MPEG4/ISO/AVC
Duration : 2h 26 min
Bit rate : 1 563 kb/s
Width : 1 024 pixels
Height : 576 pixels
Display aspect ratio : 16:9
Frame rate mode : Constant
Frame rate : 23.976 (24000/1001) FPS
Color space : YUV
Chroma subsampling : 4:2:0
Bit depth : 8 bits
Scan type : Progressive
Bits/(Pixel*Frame) : 0.111
Stream size : 1.60 GiB (72%)
Title : BDRip by AFM
Writing library : x264 core 151 r2836+45 cabfa1f 7mod [[email protected] X86_64]
Encoding settings : cabac=1 / ref=12 / deblock=1:-2:-2 / analyse=0x3:0x113 / me=umh / subme=10 / psy=1 / fade_compensate=0.00 / psy_rd=1.00:0.00 / mixed_ref=1 / me_range=64 / chroma_me=0 / trellis=2 / 8x8dct=1 / cqm=0 / deadzone=21,11 / fast_pskip=0 / chroma_qp_offset=-2 / threads=6 / lookahead_threads=1 / sliced_threads=0 / nr=0 / decimate=1 / interlaced=0 / bluray_compat=0 / constrained_intra=0 / fgo=0 / bframes=14 / b_pyramid=2 / b_adapt=2 / b_bias=0 / direct=1 / weightb=1 / open_gop=0 / weightp=2 / keyint=240 / keyint_min=23 / scenecut=40 / intra_refresh=0 / rc_lookahead=60 / rc=crf / mbtree=0 / crf=18.5000 / qcomp=0.65 / qpmin=0:0:0 / qpmax=69:69:69 / qpstep=4 / vbv_maxrate=50000 / vbv_bufsize=62500 / crf_max=0.0 / nal_hrd=none / filler=0 / ip_ratio=1.35 / pb_ratio=1.23 / aq=3:0.90 / aq-sensitivity=10.00 / aq-factor=1.00:1.00:1.00 / aq2=0 / aq3=0 / zones=201329,210830,q=30
Language : English
Default : Yes
Forced : No
Audio #1
ID : 2
Format : AC-3
Format/Info : Audio Coding 3
Mode extension : CM (complete main)
Format settings, Endianness : Big
Codec ID : A_AC3
Duration : 2h 26 min
Bit rate mode : Constant
Bit rate : 384 kb/s
Channel(s) : 6 channels
Channel positions : Front: L C R, Side: L R, LFE
Sampling rate : 48.0 kHz
Frame rate : 31.250 FPS (1536 spf)
Compression mode : Lossy
Stream size : 403 MiB (18%)
Title : MVO [Paradox & Omskbird] AC3 5.1 ~384 kbps
Language : Russian
Default : Yes
Forced : No
Audio #2
ID : 3
Format : AC-3
Format/Info : Audio Coding 3
Mode extension : CM (complete main)
Format settings, Endianness : Big
Codec ID : A_AC3
Duration : 2h 26 min
Bit rate mode : Constant
Bit rate : 192 kb/s
Channel(s) : 2 channels
Channel positions : Front: L R
Sampling rate : 48.0 kHz
Frame rate : 31.250 FPS (1536 spf)
Compression mode : Lossy
Stream size : 201 MiB (9%)
Title : Original, AC3 2.0 ~192 kbps
Language : English
Default : No
Forced : No
Text #1
ID : 4
Format : UTF-8
Codec ID : S_TEXT/UTF8
Codec ID/Info : UTF-8 Plain Text
Language : English
Default : No
Forced : No
Text #2
ID : 5
Format : UTF-8
Codec ID : S_TEXT/UTF8
Codec ID/Info : UTF-8 Plain Text
Title : SDH
Language : English
Default : No
Forced : No
Menu
00:00:00.000 : en:Chapter 01
00:03:37.091 : en:Chapter 02
00:09:18.349 : en:Chapter 03
00:13:21.967 : en:Chapter 04
00:16:55.431 : en:Chapter 05
00:22:49.910 : en:Chapter 06
00:27:42.035 : en:Chapter 07
00:32:01.878 : en:Chapter 08
00:38:23.843 : en:Chapter 09
00:44:51.397 : en:Chapter 10
00:51:22.162 : en:Chapter 11
00:56:50.657 : en:Chapter 12
01:01:30.728 : en:Chapter 13
01:08:08.292 : en:Chapter 14
01:13:12.221 : en:Chapter 15
01:17:02.284 : en:Chapter 16
01:21:08.280 : en:Chapter 17
01:25:16.861 : en:Chapter 18
01:29:20.355 : en:Chapter 19
01:34:59.276 : en:Chapter 20
01:40:19.430 : en:Chapter 21
01:43:48.805 : en:Chapter 22
01:47:46.793 : en:Chapter 23
01:52:30.410 : en:Chapter 24
01:56:30.775 : en:Chapter 25
02:04:21.954 : en:Chapter 26
02:09:17.374 : en:Chapter 27
02:19:58.765 : en:Chapter 28

x264

x264 [info]: frame I:1865 Avg QP:15.44 size: 60288
x264 [info]: frame P:42297 Avg QP:17.22 size: 18665
x264 [info]: frame B:166668 Avg QP:19.81 size: 5167
x264 [info]: consecutive B-frames: 1.4% 1.5% 4.5% 29.1% 13.8% 25.8% 5.6% 13.2% 1.2% 1.2% 1.1% 1.3% 0.1% 0.1% 0.0%
x264 [info]: mb I I16..4: 6.7% 71.1% 22.2%
x264 [info]: mb P I16..4: 0.9% 6.9% 1.5% P16..4: 38.3% 26.6% 14.5% 0.0% 0.0% skip:11.4%
x264 [info]: mb B I16..4: 0.0% 0.5% 0.2% B16..8: 37.8% 9.2% 2.0% direct: 3.0% skip:47.2% L0:42.4% L1:48.5% BI: 9.2%
x264 [info]: 8x8 transform intra:72.4% inter:63.7%
x264 [info]: coded y,uvDC,uvAC intra: 84.4% 67.1% 38.7% inter: 13.6% 6.6% 0.5%
x264 [info]: i16 v,h,dc,p: 36% 15% 7% 43%
x264 [info]: i8 v,h,dc,ddl,ddr,vr,hd,vl,hu: 12% 9% 6% 9% 13% 13% 13% 12% 12%
x264 [info]: i4 v,h,dc,ddl,ddr,vr,hd,vl,hu: 10% 8% 3% 10% 15% 15% 14% 12% 13%
x264 [info]: i8c dc,h,v,p: 36% 30% 21% 13%
x264 [info]: Weighted P-Frames: Y:96.9% UV:2.3%
x264 [info]: ref P L0: 50.8% 9.6% 15.6% 6.2% 4.7% 3.6% 3.0% 1.6% 1.4% 1.2% 1.1% 1.1% 0.1% 0.0%
x264 [info]: ref B L0: 74.1% 10.9% 5.6% 2.7% 2.0% 1.6% 1.2% 0.7% 0.6% 0.4% 0.2%
x264 [info]: ref B L1: 93.4% 6.6%
x264 [info]: kb/s:1604.09

Скриншоты

с названием


If you like the topic, please click share to help develop our site.

To download the file disable ad blocking, and reload the page.

disable adblock How to disable ad blocking?

Download by magnet link 2.23 GB Download Torrent

Login using:

Similar topics



   
Current time is: 27-May 02:09 :: All times are UTC + 3