Лекарство от здоровья / A Cure for Wellness
Страна: Германия, США
Жанр: ужасы, фэнтези, триллер, драма, детектив
Год выпуска: 2016
Продолжительность: 02:26:33
Перевод: Любительский (многоголосый закадровый) | Paradox & Omskbird Records | присутствует ненормативная лексика
Субтитры: нет
Оригинальная аудиодорожка: нет-Режиссер: Гор Вербински / Gore Verbinski-В ролях: Дэйн ДеХаан (Lockhart), Джейсон Айзекс (Volmer), Миа Гот (Hannah), Иво Нанди (Enrico), Адриан Шиллер (Deputy Director), Селия Имри (Victoria Watkins), Гарри Гронер (Pembroke), Томас Норстрем (Frank Hill), Ашок Манданна (Ron Nair), Магнус Креппер (Pieter The Vet), Питер Бенедикт (Constable), Михаэль Мендль (Bartender)-Описание: Молодой амбициозный сотрудник отправляется в затерянный в швейцарских Альпах оздоровительный центр, чтобы вернуть оттуда руководителя своей компании. Но по прибытии он понимает, что чудодейственные процедуры спа-салона вовсе не те, чем кажутся. В то время как парень начинает распутывать страшные тайны этого места, его здравый ум проходит настоящую проверку на прочность. Похоже, теперь он страдает той же странной болезнью, по причине которой здесь остаются другие гости центра, желающие получить свою дозу лекарства.-Качество видео: BDRip | A.Cure.for.Wellness.2016.BDREMUX.1080p.ExKinoRay.mkv
Формат видео: AVI
Видео: 720x400 (1.80:1), 23.976 fps, XviD build 73 ~1034 kbps avg, 0.15 bit/pixel
Аудио: 48 kHz, AC3 Dolby Digital, 3/2 (L,C,R,l,r) + LFE ch, ~384 kbps-Скачать сэмпл-

MediaInfo

Format                      : AVI
Format/Info                 : Audio Video Interleave
File size                   : 1.46 GiB
Duration                    : 2 h 26 min
Overall bit rate            : 1 428 kb/s
Writing application         : VirtualDubMod 1.5.10.3 | www.virtualdub-fr.org || (build 2550/release)
Writing library             : VirtualDubMod build 2550/release
Video
ID                          : 0
Format                      : MPEG-4 Visual
Format profile              : Advanced [email protected]
Format settings, BVOP       : 1
Format settings, QPel       : No
Format settings, GMC        : No warppoints
Format settings, Matrix     : Default (MPEG)
Codec ID                    : DX50
Codec ID/Hint               : DivX 5
Duration                    : 2 h 26 min
Bit rate                    : 1 034 kb/s
Width                       : 720 pixels
Height                      : 400 pixels
Display aspect ratio        : 16:9
Frame rate                  : 23.976 (24000/1001) FPS
Color space                 : YUV
Chroma subsampling          : 4:2:0
Bit depth                   : 8 bits
Scan type                   : Progressive
Compression mode            : Lossy
Bits/(Pixel*Frame)          : 0.150
Stream size                 : 1.06 GiB (72%)
Writing library             : XviD 73
Audio
ID                          : 1
Format                      : AC-3
Format/Info                 : Audio Coding 3
Format settings, Endianness : Big
Codec ID                    : 2000
Duration                    : 2 h 26 min
Bit rate mode               : Constant
Bit rate                    : 384 kb/s
Channel(s)                  : 6 channels
Channel positions           : Front: L C R, Side: L R, LFE
Sampling rate               : 48.0 kHz
Frame rate                  : 31.250 FPS (1536 spf)
Bit depth                   : 16 bits
Compression mode            : Lossy
Stream size                 : 403 MiB (27%)
Alignment                   : Split accross interleaves
Interleave, duration        : 42  ms (1.00 video frame)
Interleave, preload duratio : 500  ms
Service kind                : Complete Main

Скриншоты

При появлении норм. озвучки, рип будет перезалит!

If you like the topic, please click share to help develop our site.

To download the file disable ad blocking, and reload the page.

disable adblock How to disable ad blocking?

Download by magnet link 1.46 GB Download Torrent

Login using:

Similar topics



   
Current time is: 25-May 19:29 :: All times are UTC + 3