Т2 Трейнспоттинг / На игле 2 / T2 Trainspotting
Страна: Великобритания
Жанр: драма
Год выпуска: 2017
Продолжительность: 01:57:22
Перевод: Профессиональный (дублированный) EUR
Субтитры: русские (полные, форсированные), английские (полные, форсированные), украинские
Оригинальная аудиодорожка: английский
Режиссер: Дэнни Бойл / Danny Boyle
В ролях: Юэн МакГрегор, Юэн Бремнер, Джонни Ли Миллер, Роберт Карлайл, Кевин МакКидд, Кайл Фицпатрик, Келли Макдоналд, Анжела Недялкова, Полин Линч, Джеймс Космо
Описание: Прошло двадцать лет. Рентон возвращается в единственное место, которое может считать своим домом. Они все ждут его: Кочерыжка, Кайфолом и Бегби. А вместе с ними другие старые знакомые: месть и страх, ненависть и любовь, дружба, сожаление и надежда. Все они выстроились в шеренгу, приветствуя Рентона, и он, кажется, готов к ним присоединиться.
Сэмпл: http://multi-up.com/1156219
Качество видео: BDRip (источник: HDCLUB / Blu-Ray EUR / 1080р)
Формат видео: AVI
Видео: 704x384 (1.83:1), 23.976 fps, XviD build 65 ~1759 kbps avg, 0.27 bit/pixel
Аудио: 48 kHz, AC3 Dolby Digital, 3/2 (L,C,R,l,r) + LFE ch, ~448 kbps avg
Аудио 2: 48 kHz, AC3 Dolby Digital, 3/2 (L,C,R,l,r) + LFE ch, ~448 kbps avg
Формат субтитров: softsub (SRT)
Релиз:
Автор: yaroslaigor

MediaInfo

Format : AVI
Format/Info : Audio Video Interleave
Format profile : OpenDML
File size : 2.18 GiB
Duration : 1 h 57 min
Overall bit rate : 2 662 kb/s
Writing application : VirtualDubMod 1.5.10.2 (build 2542/release)
Video
ID : 0
Format : MPEG-4 Visual
Format profile : Advanced [email protected]
Format settings, BVOP : 1
Format settings, QPel : No
Format settings, GMC : No warppoints
Format settings, Matrix : Custom
Codec ID : XVID
Codec ID/Hint : XviD
Duration : 1 h 57 min
Bit rate : 1 748 kb/s
Width : 704 pixels
Height : 384 pixels
Display aspect ratio : 1.85:1
Frame rate : 23.976 (24000/1001) FPS
Color space : YUV
Chroma subsampling : 4:2:0
Bit depth : 8 bits
Scan type : Progressive
Compression mode : Lossy
Bits/(Pixel*Frame) : 0.270
Stream size : 1.43 GiB (66%)
Writing library : XviD 65
Audio #1
ID : 1
Format : AC-3
Format/Info : Audio Coding 3
Mode extension : CM (complete main)
Format settings, Endianness : Big
Codec ID : 2000
Duration : 1 h 57 min
Bit rate mode : Constant
Bit rate : 448 kb/s
Channel(s) : 6 channels
Channel positions : Front: L C R, Side: L R, LFE
Sampling rate : 48.0 kHz
Frame rate : 31.250 FPS (1536 spf)
Compression mode : Lossy
Stream size : 376 MiB (17%)
Alignment : Split accross interleaves
Interleave, duration : 42 ms (1.00 video frame)
Interleave, preload duration : 500 ms
Audio #2
ID : 2
Format : AC-3
Format/Info : Audio Coding 3
Mode extension : CM (complete main)
Format settings, Endianness : Big
Codec ID : 2000
Duration : 1 h 57 min
Bit rate mode : Constant
Bit rate : 448 kb/s
Channel(s) : 6 channels
Channel positions : Front: L C R, Side: L R, LFE
Sampling rate : 48.0 kHz
Frame rate : 31.250 FPS (1536 spf)
Compression mode : Lossy
Stream size : 376 MiB (17%)
Alignment : Split accross interleaves
Interleave, duration : 42 ms (1.00 video frame)
Interleave, preload duration : 500 ms

Скриншот c названием фильма

Скриншоты


If you like the topic, please click share to help develop our site.

To download the file disable ad blocking, and reload the page.

disable adblock How to disable ad blocking?

Download by magnet link 2.18 GB Download Torrent

Login using:

Similar topics



   
Current time is: 27-May 03:30 :: All times are UTC + 3