Любовь и страсть. Далида / Dalida
Страна: Франция
Жанр: биография
Год выпуска: 2016
Продолжительность: 02:06:57
Перевод: Профессиональный (дублированный)
Субтитры: нет
Оригинальная аудиодорожка: нет-Режиссер: Лиза Азуэлос / Lisa Azuelos-В ролях: Свева Альвити, Венсан Перес, Риккардо Скамарчо, Нильс Шнайдер, Жан-Поль Рув, Николя Дювошель, Алессандро Борги, Валентина Карли, Бренно Плачидо, Микаэль Коэн-Описание:
Она была рождена, чтобы стать звездой. Она обладала магической красотой и невероятным голосом. Она ворвалась на музыкальный Олимп и завладела сердцами всего мира. Но слава и деньги не принесли ей счастья. Всю жизнь она искала настоящую любовь и ради нее пожертвовала всем.-Качество видео: BDRip
Формат видео: AVI
Видео: 720x304 (2.37:1), 23.976 fps, XviD build 73 ~1248 kbps avg, 0.24 bit/pixel
Аудио: 48 kHz, AC3 Dolby Digital, 3/2 (L,C,R,l,r) + LFE ch, ~384 kbps- -

MI

Format                      : AVI
Format/Info                 : Audio Video Interleave
File size                   : 1.46 GiB
Duration                    : 2 h 7 min
Overall bit rate            : 1 642 kb/s
Writing application         : VirtualDubMod 1.5.10.3 | www.virtualdub-fr.org || (build 2550/release)
Writing library             : VirtualDubMod build 2550/release
Video
ID                          : 0
Format                      : MPEG-4 Visual
Format profile              : Advanced [email protected]
Format settings, BVOP       : 1
Format settings, QPel       : No
Format settings, GMC        : No warppoints
Format settings, Matrix     : Default (MPEG)
Codec ID                    : DX50
Codec ID/Hint               : DivX 5
Duration                    : 2 h 7 min
Bit rate                    : 1 249 kb/s
Width                       : 720 pixels
Height                      : 304 pixels
Display aspect ratio        : 2.35:1
Frame rate                  : 23.976 (24000/1001) FPS
Color space                 : YUV
Chroma subsampling          : 4:2:0
Bit depth                   : 8 bits
Scan type                   : Progressive
Compression mode            : Lossy
Bits/(Pixel*Frame)          : 0.238
Stream size                 : 1.11 GiB (76%)
Writing library             : XviD 73
Audio
ID                          : 1
Format                      : AC-3
Format/Info                 : Audio Coding 3
Format settings, Endianness : Big
Codec ID                    : 2000
Duration                    : 2 h 7 min
Bit rate mode               : Constant
Bit rate                    : 384 kb/s
Channel(s)                  : 6 channels
Channel positions           : Front: L C R, Side: L R, LFE
Sampling rate               : 48.0 kHz
Frame rate                  : 31.250 FPS (1536 spf)
Bit depth                   : 16 bits
Compression mode            : Lossy
Stream size                 : 349 MiB (23%)
Alignment                   : Split accross interleaves
Interleave, duration        : 42  ms (1.00 video frame)
Interleave, preload duratio : 500  ms
Service kind                : Complete Main

Скриншоты


If you like the topic, please click share to help develop our site.

To download the file disable ad blocking, and reload the page.

disable adblock How to disable ad blocking?

Download by magnet link 1.46 GB Download Torrent

Login using:

Similar topics



   
Current time is: 27-May 02:13 :: All times are UTC + 3