Падение Лондона / London Has Fallen
Страна: США, Великобритания, Болгария
Жанр: Боевик, триллер, драма, криминал
Год выпуска: 2016
Продолжительность: 01:38:42
Перевод: Авторский (одноголосый закадровый) Андрей Гаврилов
Субтитры: нет
Оригинальная аудиодорожка: нет
Режиссер: Бабак Наджафи / Babak Najafi
В ролях: Джерард Батлер, Аарон Экхарт, Морган Фримен, Алон Абутбул, Валид Зуэйтер, Адель Беншериф, Мехди Дехби, Шивани Гаи, Мартин Петрушев, Оуэн Дэвис, Майкл Уилдман, Рада Митчелл, Стэйси Шэйн, Пенни Дауни, Кларксон Гай Уильямс, Патрик Кеннеди, Колин Сэлмон, Анджела Бассетт, Дебора Грант, Эндрю Плевин
Описание: При загадочных обстоятельствах убит британский премьер-министр. На его похороны съезжаются лидеры крупнейших держав мира. Несмотря на запредельные меры безопасности, неизвестные террористы успешно взрывают приглашенных руководителей государств одного за другим вместе с половиной исторического центра Лондона. Однако, для президента США и его личного телохранителя все только начинается...
Доп. информация:
Релиз от
Рип от sudar007, исходник - BD USA 1080p
Перевод состоялся благодаря пользователям форума dunhill200: alex75, Vimann, Denis1980, Chistobaev, Gangster, kolibri2, GaryH, Skibichok, nimph, mazeu, MyxAmoP, xerman13, KerkP, Holo, ZeRoNe, Tagansky
Автор описания: HectorDragon
Сэмпл: http://multi-up.com/1156208
Качество видео: BDRip
Формат видео: AVI
Видео: XviD; 720x304 (2,35:1); 1662 Kbps; 23,976 fps; 0,317 bit/pixel
Аудио: AC3; 48 kHz, 448 Kbps; CBR; 6 ch

MediaInfo

Общее
Полное имя : London.Has.Fallen.2016.BDRip.Gavrilov.lumpeN.avi
Формат : AVI
Формат/Информация : Audio Video Interleave
Размер файла : 1,46 Гбайт
Продолжительность : 1 ч. 38 м.
Общий поток : 2120 Кбит/сек
Название фильма : lumpeN
Программа кодирования : VirtualDubMod 1.5.10.2 (build 2540/release)
Библиотека кодирования : VirtualDubMod build 2540/release
Видео
Идентификатор : 0
Формат : MPEG-4 Visual
Профиль формата : Advanced [email protected]
Параметр BVOP формата : 2
Параметр QPel формата : Нет
Параметр GMC формата : Без точки перехода
Параметр матрицы формата : Default (MPEG)
Идентификатор кодека : XVID
Идентификатор кодека/Подсказка : XviD
Продолжительность : 1 ч. 38 м.
Битрейт : 1662 Кбит/сек
Ширина : 720 пикселей
Высота : 304 пикселя
Соотношение сторон : 2,35:1
Частота кадров : 23,976 (24000/1001) кадра/сек
Цветовое пространство : YUV
Субдискретизация насыщенности : 4:2:0
Битовая глубина : 8 бит
Тип развёртки : Прогрессивная
Метод сжатия : С потерями
Бит/(Пиксели*Кадры) : 0.317
Размер потока : 1,15 Гбайт (78%)
Библиотека кодирования : XviD 73
Аудио
Идентификатор : 1
Формат : AC-3
Формат/Информация : Audio Coding 3
Параметр Endianness формата : Big
Идентификатор кодека : 2000
Продолжительность : 1 ч. 38 м.
Вид битрейта : Постоянный
Битрейт : 448 Кбит/сек
Каналы : 6 каналов
Расположение каналов : Front: L C R, Side: L R, LFE
Частота : 48,0 КГц
Частота кадров : 31,250 кадров/сек (1536 spf)
Битовая глубина : 16 бит
Метод сжатия : С потерями
Размер потока : 316 Мбайт (21%)
Выравнивание : Разделение по промежуткам
Продолжительность промежутка : 42 мс. (1,00 видеокадр)
Время предзагрузки промежутка : 500 мс.
Заголовок : Gavrilov
ServiceKind/String : Complete Main

Скриншоты


If you like the topic, please click share to help develop our site.

To download the file disable ad blocking, and reload the page.

disable adblock How to disable ad blocking?

Download by magnet link 1.46 GB Download Torrent

Login using:

Similar topics

Падение Лондона / London Has Fallen (2016) HDRip-AVC | iTunes
 742 MB   1 | 0   07-Sep-16 21:57   1


   
Current time is: 27-May 02:51 :: All times are UTC + 3