-Логан / Logan«Его время пришло»--Год выпуска: 2017Страна: СШАЖанр: фантастика, боевик, триллер-Продолжительность: 02:17:24Перевод: Профессиональный (дублированный) [iTunes]Оригинальная аудиодорожка: нетСубтитры: (русские - Force, Full, украинские - Full, английские - Full, SDH) [.srt]--Режиссер:Джеймс Мэнголд / James Mangold-В ролях:Хью Джекман, Патрик Стюарт, Дафни Кин, Бойд Холбрук, Стивен Мерчант, Элизабет Родригес, Ричард Э. Грант, Эрик Ла Салль, Элиз Нил, Куинси Фаус-Описание:
В недалеком будущем уставший от жизни Логан заботится о больном профессоре Икс, который прячется неподалеку от мексиканской границы. Но Логан больше не сможет скрывать свое прошлое, когда встретится с юным мутантом, которого преследуют темные силы.
--Дополнительная информация:- -Сэмпл Рип НЕ совместим с бытовыми DVD-проигрывателями.--Качество видео: HDRip-AVC (Исходник: BDRip 720p)
Формат видео: MKV
Видео: AVC (x264), 960x400 (2.4:1), 23.976 fps, ~1138 kbps avg, 0.124 bit/pixel
Аудио: 48 kHz, AC3 Dolby Digital, 3/2 (L,C,R,l,r) + LFE ch, 384 kbps (Дубляж)
Главы: есть-

Сравнение

http://********.org/forum/viewtopic.php?t=5388752 (ASP) -> http://screenshotcomparison.com/comparison/211156
+ многоканальный звук.

MediaInfo/log

log

x264 [info]: frame I:1730 Avg QP:16.67 size: 47048
x264 [info]: frame P:43759 Avg QP:20.74 size: 12634
x264 [info]: frame B:152152 Avg QP:21.72 size: 3536
x264 [info]: consecutive B-frames: 2.1% 2.4% 8.0% 27.1% 17.8% 32.6% 4.1% 2.8% 1.3% 0.5% 0.3% 0.3% 0.2% 0.1% 0.1% 0.1% 0.3%
x264 [info]: mb I I16..4: 4.1% 76.7% 19.2%
x264 [info]: mb P I16..4: 1.0% 8.9% 1.5% P16..4: 34.7% 36.7% 10.4% 0.0% 0.0% skip: 6.8%
x264 [info]: mb B I16..4: 0.1% 1.0% 0.1% B16..8: 35.0% 17.3% 2.2% direct: 3.1% skip:41.1% L0:42.9% L1:47.0% BI:10.1%
x264 [info]: 8x8 transform intra:78.4% inter:64.3%
x264 [info]: direct mvs spatial:99.0% temporal:1.0%
x264 [info]: coded y,uvDC,uvAC intra: 84.9% 74.9% 40.8% inter: 15.1% 12.2% 4.6%
x264 [info]: i16 v,h,dc,p: 16% 19% 4% 61%
x264 [info]: i8 v,h,dc,ddl,ddr,vr,hd,vl,hu: 7% 7% 4% 10% 15% 15% 15% 13% 14%
x264 [info]: i4 v,h,dc,ddl,ddr,vr,hd,vl,hu: 10% 9% 4% 9% 15% 14% 14% 11% 13%
x264 [info]: i8c dc,h,v,p: 34% 27% 19% 20%
x264 [info]: Weighted P-Frames: Y:5.0% UV:2.9%
x264 [info]: ref P L0: 53.1% 9.4% 14.7% 6.6% 4.8% 3.6% 2.8% 1.6% 1.3% 1.1% 0.9% 0.1% 0.0%
x264 [info]: ref B L0: 76.2% 11.6% 5.1% 2.4% 1.6% 1.2% 0.9% 0.5% 0.3% 0.1%
x264 [info]: ref B L1: 95.0% 5.0%
x264 [info]: kb/s:1137.71
General
Unique ID : 199029740283418030035065803878433301308 (0x95BBBBD15FC3BBE9BF1D2E0FB248233C)
Complete name : \Logan_(2017).HDRip-AVC.Dub.ac3.sub_[All.Films][RG].mkv
Format : Matroska
Format version : Version 2
File size : 1.46 GiB
Duration : 2 h 17 min
Overall bit rate : 1 524 kb/s
Movie name : Логан / Logan (2017) HDRip-AVC | [All.Films][RG][********.org]
Encoded date : UTC 2017-05-28 15:30:49
Writing application : mkvmerge v6.9.1 ('Blue Panther') 32bit built on Apr 18 2014 18:15:44
Writing library : libebml v1.3.0 + libmatroska v1.4.1
Video
ID : 1
Format : AVC
Format/Info : Advanced Video Codec
Format profile : [email protected]
Format settings, CABAC : Yes
Format settings, ReFrames : 11 frames
Codec ID : V_MPEG4/ISO/AVC
Duration : 2 h 17 min
Bit rate : 1 138 kb/s
Width : 960 pixels
Height : 400 pixels
Display aspect ratio : 2.40:1
Frame rate mode : Constant
Frame rate : 23.976 (24000/1001) FPS
Color space : YUV
Chroma subsampling : 4:2:0
Bit depth : 8 bits
Scan type : Progressive
Bits/(Pixel*Frame) : 0.124
Stream size : 1.06 GiB (73%)
Writing library : x264 core 148 r2744kMod b97ae06
Encoding settings : cabac=1 / ref=11 / deblock=1:-2:-2 / analyse=0x3:0x113 / me=umh / subme=11 / psy=1 / fade_compensate=0.00 / psy_rd=1.00:0.00 / mixed_ref=1 / me_range=48 / chroma_me=1 / trellis=2 / 8x8dct=1 / cqm=0 / deadzone=21,11 / fast_pskip=0 / chroma_qp_offset=-2 / threads=6 / lookahead_threads=1 / sliced_threads=0 / nr=0 / decimate=0 / interlaced=0 / bluray_compat=0 / constrained_intra=0 / bframes=16 / b_pyramid=2 / b_adapt=2 / b_bias=0 / direct=3 / weightb=1 / open_gop=0 / weightp=2 / keyint=240 / keyint_min=23 / scenecut=40 / intra_refresh=0 / rc_lookahead=60 / rc=2pass / mbtree=0 / bitrate=1138 / ratetol=1.0 / qcomp=0.60 / qpmin=0 / qpmax=69 / qpstep=4 / cplxblur=20.0 / qblur=0.5 / vbv_maxrate=50000 / vbv_bufsize=62500 / nal_hrd=none / filler=0 / ip_ratio=1.40 / pb_ratio=1.30 / aq=3:1.00 / zones=189000,197641,q=30
Default : Yes
Forced : No
Audio
ID : 2
Format : AC-3
Format/Info : Audio Coding 3
Mode extension : CM (complete main)
Format settings, Endianness : Big
Codec ID : A_AC3
Duration : 2 h 17 min
Bit rate mode : Constant
Bit rate : 384 kb/s
Channel(s) : 6 channels
Channel positions : Front: L C R, Side: L R, LFE
Sampling rate : 48.0 kHz
Frame rate : 31.250 FPS (1536 spf)
Compression mode : Lossy
Stream size : 377 MiB (25%)
Title : Дубляж (iTunes)
Language : Russian
Default : Yes
Forced : No
Text #1
ID : 3
Format : UTF-8
Codec ID : S_TEXT/UTF8
Codec ID/Info : UTF-8 Plain Text
Title : Forced
Language : Russian
Default : Yes
Forced : Yes
Text #2
ID : 4
Format : UTF-8
Codec ID : S_TEXT/UTF8
Codec ID/Info : UTF-8 Plain Text
Title : Full
Language : Russian
Default : No
Forced : No
Text #3
ID : 5
Format : UTF-8
Codec ID : S_TEXT/UTF8
Codec ID/Info : UTF-8 Plain Text
Title : Full
Language : Ukrainian
Default : No
Forced : No
Text #4
ID : 6
Format : UTF-8
Codec ID : S_TEXT/UTF8
Codec ID/Info : UTF-8 Plain Text
Title : Full
Language : English
Default : No
Forced : No
Text #5
ID : 7
Format : UTF-8
Codec ID : S_TEXT/UTF8
Codec ID/Info : UTF-8 Plain Text
Title : SDH
Language : English
Default : No
Forced : No
Menu
00:00:00.000 : en:00:00:00.000
00:05:35.126 : en:00:05:35.126
00:09:18.558 : en:00:09:18.558
00:11:41.159 : en:00:11:41.159
00:16:23.232 : en:00:16:23.232
00:20:11.669 : en:00:20:11.669
00:24:26.715 : en:00:24:26.715
00:26:11.904 : en:00:26:11.904
00:30:13.311 : en:00:30:13.311
00:31:59.126 : en:00:31:59.126
00:34:56.886 : en:00:34:56.886
00:39:53.433 : en:00:39:53.433
00:42:55.573 : en:00:42:55.573
00:45:03.826 : en:00:45:03.826
00:47:53.412 : en:00:47:53.412
00:49:39.560 : en:00:49:39.560
00:52:14.423 : en:00:52:14.423
00:54:30.517 : en:00:54:30.517
00:57:44.211 : en:00:57:44.211
01:00:10.398 : en:01:00:10.398
01:03:53.830 : en:01:03:53.830
01:06:55.511 : en:01:06:55.511
01:09:54.774 : en:01:09:54.774
01:13:15.891 : en:01:13:15.891
01:18:43.594 : en:01:18:43.594
01:21:50.906 : en:01:21:50.906
01:25:52.189 : en:01:25:52.189
01:28:38.813 : en:01:28:38.813
01:32:41.431 : en:01:32:41.431
01:35:29.724 : en:01:35:29.724
01:41:03.432 : en:01:41:03.432
01:43:39.880 : en:01:43:39.880
01:49:38.989 : en:01:49:38.989
01:54:20.562 : en:01:54:20.562
01:57:00.430 : en:01:57:00.430
01:59:20.403 : en:01:59:20.403
02:01:14.434 : en:02:01:14.434
02:05:09.627 : en:02:05:09.627
02:06:40.551 : en:02:06:40.551
02:11:07.860 : en:02:11:07.860

FAQ по просмотру MKV/h.264/AAC


If you like the topic, please click share to help develop our site.

To download the file disable ad blocking, and reload the page.

disable adblock How to disable ad blocking?

Download by magnet link 1.46 GB Download Torrent

Login using:

Similar topics



   
Current time is: 27-May 02:22 :: All times are UTC + 3