Вымогательство / Extortion
Страна: США, Пуэрто Рико
Жанр: Боевик, триллер
Год выпуска: 2017
Продолжительность: 01:49:11
Перевод: Любительский (многоголосый закадровый) "Paradox" & Omskbird records
Субтитры: нет
Оригинальная аудиодорожка: нет
Режиссер: Филипп Волкен / Phil Volken
В ролях: Эйон Бэйли, Бетани Джой Ленц, Баркхад Абди, Дэнни Гловер, Тим Гриффин, Джек Уоллес, Элид Барриос
Описание: Счастливая семья отправляется отдыхать на Карибы, но вскоре их поездка превращается в сущий кошмар. После несчастного случая главному герою придётся бежать наперегонки со временем, чтобы спасти своих жену и сына.
Сэмпл: http://multi-up.com/1155971
Качество видео: WEB-DLRip
Формат видео: AVI
Видео: 720x304 (2.37:1), 23.976 fps, XviD build 73 ~1531 kbps avg, 0.29 bit/pixel
Аудио: 48 kHz, AC3 Dolby Digital, 3/2 (L,C,R,l,r) + LFE ch, ~384 kbps

MediaInfo

Format : AVI
Format/Info : Audio Video Interleave
File size : 1.47 GiB
Duration : 1 h 49 min
Overall bit rate : 1 925 kb/s
Writing application : VirtualDubMod 1.5.10.3 | www.virtualdub-fr.org || (build 2550/release)
Writing library : VirtualDubMod build 2550/release
Video
ID : 0
Format : MPEG-4 Visual
Format profile : Advanced [email protected]
Format settings, BVOP : 1
Format settings, QPel : No
Format settings, GMC : No warppoints
Format settings, Matrix : Custom
Codec ID : XVID
Codec ID/Hint : XviD
Duration : 1 h 49 min
Bit rate : 1 532 kb/s
Width : 720 pixels
Height : 304 pixels
Display aspect ratio : 2.35:1
Frame rate : 23.976 (23976/1000) FPS
Color space : YUV
Chroma subsampling : 4:2:0
Bit depth : 8 bits
Scan type : Progressive
Compression mode : Lossy
Bits/(Pixel*Frame) : 0.292
Stream size : 1.17 GiB (80%)
Writing library : XviD 73
Audio
ID : 1
Format : AC-3
Format/Info : Audio Coding 3
Mode extension : CM (complete main)
Format settings, Endianness : Big
Codec ID : 2000
Duration : 1 h 49 min
Bit rate mode : Constant
Bit rate : 384 kb/s
Channel(s) : 6 channels
Channel positions : Front: L C R, Side: L R, LFE
Sampling rate : 48.0 kHz
Frame rate : 31.250 FPS (1536 spf)
Compression mode : Lossy
Stream size : 300 MiB (20%)
Alignment : Split accross interleaves
Interleave, duration : 42 ms (1.00 video frame)
Interleave, preload duration : 500 ms

Скриншот c названием фильма

Скриншоты


If you like the topic, please click share to help develop our site.

To download the file disable ad blocking, and reload the page.

disable adblock How to disable ad blocking?

Download by magnet link 1.47 GB Download Torrent

Login using:

Similar topics

Вымогательство / Extortion (2017) BDRemux 1080р | D, L | iTunes
 26.99 GB   12 | 2   13-May-19 02:30   0
Вымогательство / Extortion (2017) BDRip 1080р | D, L | iTunes
 9.21 GB   105 | 4   13-May-19 02:30   0
Вымогательство / Extortion (2017) BDRip 720р | D, L | iTunes
 5.81 GB   67 | 4   13-May-19 02:30   0


   
Current time is: 27-May 03:02 :: All times are UTC + 3