Просто потрясающе / Absolutely Fabulous: The Movie
Страна: Великобритания, США
Жанр: комедия, криминал
Год выпуска: 2016
Продолжительность: 01:30:55
Перевод: Профессиональный (многоголосый закадровый)
Субтитры: нет
Оригинальная аудиодорожка: нет-Режиссер: Мэнди Флетчер / Mandie Fletcher-В ролях: Лулу, Гвендолин Кристи, Дженнифер Сондерс, Джоанна Ламли, Джулия Савалия, Indeyarna Donaldson-Holness, Джейн Хоррокс, Джун Уитфилд, Мо Гаффни, Кристофер Райан-Описание: Эдина и Пэтси все еще источают гламур и блеск живя той красивой жизнью, к которой они так привыкли. Шоппинг, выпивохинг и клаббинг по всему Лондону, и в самых модных его частях. Обвиненные в инциденте на одном из модных показов, они оказываются в центре медийного шторма. Во избежания преследования папарацци они сбегают (попутно забыв деньги) на очень дорогую Французскую Ривьеру, с целью остаться здесь навсегда.-Качество видео: HDRip
Формат видео: AVI
Видео: 688x288 (2.39:1), 23.976 fps, XviD build 73 ~1004 kbps avg, 0.21 bit/pixel
Аудио: 48 kHz, MPEG Layer 3, 2 ch, ~128.00 kbps avg-Сэмпл-

MediaInfo

Format                      : AVI
Format/Info                 : Audio Video Interleave
File size                   : 743 MiB
Duration                    : 1 h 30 min
Overall bit rate            : 1 142 kb/s
Writing application         : VirtualDubMod 1.5.10.3 | www.virtualdub-fr.org || (build 2550/release)
Writing library             : VirtualDubMod build 2550/release
Video
ID                          : 0
Format                      : MPEG-4 Visual
Format profile              : Advanced [email protected]
Format settings, BVOP       : 1
Format settings, QPel       : No
Format settings, GMC        : No warppoints
Format settings, Matrix     : Custom
Codec ID                    : XVID
Codec ID/Hint               : XviD
Duration                    : 1 h 30 min
Bit rate                    : 1 005 kb/s
Width                       : 688 pixels
Height                      : 288 pixels
Display aspect ratio        : 2.40:1
Frame rate                  : 23.976 (24000/1001) FPS
Color space                 : YUV
Chroma subsampling          : 4:2:0
Bit depth                   : 8 bits
Scan type                   : Progressive
Compression mode            : Lossy
Bits/(Pixel*Frame)          : 0.211
Stream size                 : 653 MiB (88%)
Writing library             : XviD 73
Audio
ID                          : 1
Format                      : MPEG Audio
Format version              : Version 1
Format profile              : Layer 3
Codec ID                    : 55
Codec ID/Hint               : MP3
Duration                    : 1 h 30 min
Bit rate mode               : Constant
Bit rate                    : 128 kb/s
Channel(s)                  : 2 channels
Sampling rate               : 48.0 kHz
Compression mode            : Lossy
Stream size                 : 83.2 MiB (11%)
Alignment                   : Aligned on interleaves
Interleave, duration        : 42  ms (1.00 video frame)
Interleave, preload duratio : 504  ms
Writing library             : LAME3.99r
Encoding settings           : -m s -V 4 -q 2 -lowpass 17 -b 128

Скриншоты


If you like the topic, please click share to help develop our site.

To download the file disable ad blocking, and reload the page.

disable adblock How to disable ad blocking?

Download by magnet link 743 MB Download Torrent

Login using:

Similar topics



   
Current time is: 27-May 02:00 :: All times are UTC + 3