Берлинский синдром / Berlin Syndrome- Страна: Австралия, Германия
Жанр: Триллер
Год выпуска: 2017
Продолжительность: 01:55:57-Перевод: Одноголосый закадровый - BadBajo
Субтитры: нет-Режиссер: Кейт Шортланд / Cate Shortland-В ролях: Тереза Палмер, Макс Римельт, Люси Арон, Сем Тункай, Маттиас Хабих, Эмма Бадинг, Майя Абсберг, Морган Ферру, Кристина Костив, Чарли Торн-Описание: Когда во время отпуска в Берлине австралийская фотожурналистка Клэр встречает Энди, харизматичного местного парня, между ними мгновенно возникает взаимное притяжение. После совместной прогулки по улицам Берлина наступает ночь страсти, но то, что на первый взгляд кажется началом бурного романа, неожиданно принимает зловещий оборот. Клэр просыпается на следующее утро и понимает, что Энди ушел на работу, оставив ее запертой в своей квартире. Казалось бы, нелепая ошибка. За исключением того, что он не собирается ее отпускать. Когда-либо.- / / -Качество видео: WEB-DLRip
Формат видео: AVI
Видео: 720х304 (2.35:1), 24.000 fps, XviD build 73, 1476 Kbps, 0.28 bits/pixel
Аудио: 48 kHz, AC3 Dolby Digital, 5.1 ch, 384 Kbps-Релиз от: -

MediaInfo

General
Complete name : Downloads\Berlin.Syndrome.2017.AVO.BadBajo.WEB-DLRip.ExKinoRay.avi
Format : AVI
Format/Info : Audio Video Interleave
File size : 1.51 GiB
Duration : 1h 55mn
Overall bit rate : 1 869 Kbps
Writing application : VirtualDubMod 1.5.10.3 | www.virtualdub-fr.org || (build 2550/release)
Writing library : VirtualDubMod build 2550/release
Video #0
ID : 0
Format : MPEG-4 Visual
Format profile : Advanced [email protected]
Format settings, BVOP : 1
Format settings, QPel : No
Format settings, GMC : No warppoints
Format settings, Matrix : Custom
Codec ID : XVID
Codec ID/Hint : XviD
Duration : 1h 55mn
Bit rate : 1 476 Kbps
Width : 720 pixels
Height : 304 pixels
Display aspect ratio : 2.35:1
Frame rate : 24.000 fps
Color space : YUV
Chroma subsampling : 4:2:0
Bit depth : 8 bits
Scan type : Progressive
Compression mode : Lossy
Bits/(Pixel*Frame) : 0.281
Stream size : 1.20 GiB (79%)
Writing library : XviD 73
Audio #1
ID : 1
Format : AC-3
Format/Info : Audio Coding 3
Mode extension : CM (complete main)
Format settings, Endianness : Big
Codec ID : 2000
Duration : 1h 55mn
Bit rate mode : Constant
Bit rate : 384 Kbps
Channel(s) : 6 channels
Channel positions : Front: L C R, Side: L R, LFE
Sampling rate : 48.0 KHz
Bit depth : 16 bits
Compression mode : Lossy
Stream size : 318 MiB (21%)
Alignment : Split accross interleaves
Interleave, duration : 42 ms (1.00 video frame)
Interleave, preload duration : 500 ms

Скриншот c названием фильма

Скриншоты


If you like the topic, please click share to help develop our site.

To download the file disable ad blocking, and reload the page.

disable adblock How to disable ad blocking?

Download by magnet link 1.51 GB Download Torrent

Login using:

Similar topics



   
Current time is: 27-May 02:24 :: All times are UTC + 3