ЛоганLoganNoir Edition«Его время пришло»

Страна: США
Жанр: фантастика, боевик, триллер, драма
Год выпуска: 2017
Продолжительность: 02:17:23
Перевод: Профессиональный (дублированный) iTunes
Субтитры: русские, английские
Оригинальная аудиодорожка: английский
Режиссер: Мэнголд / James Mangold
В ролях: Хью Джекман, Патрик Стюарт, Дафни Кин, Бойд Холбрук, Стивен Мерчант, Элизабет Родригес, Ричард Э. Грант, Эрик Ла Салль, Элиз Нил, Куинси Фаус
Описание: В недалеком будущем уставший от жизни Логан заботится о больном профессоре Икс, который прячется неподалеку от мексиканской границы. Но Логан больше не сможет скрывать свое прошлое, когда встретится с юным мутантом, которого преследуют темные силы.
Доп. информация:
Релиз группы:
Сохранены оригинальные главы как на Bluray
Качество видео: BDRip-AVC | Logan (2017) [Noir Edition]1080p BD-Remux_HD Club |
Формат видео: MKV
Видео: 1152x484 (2:40:1), 23,976 fps, 2860 Кbps, 0.214 bit/pixe
Аудио: 48 kHz, AC3 Dolby Digital, 3/2 (L,C,R,l,r) + LFE ch, ~384.00 kbps avg DUB
Аудио 2: 48 kHz, AC3 Dolby Digital, 3/2 (L,C,R,l,r) + LFE ch, ~448.00 kbps avg ENG
Формат субтитров: softsub (SRT)
Доп. информация о субтитрах: отключаемые

Знаете ли Вы что

• Фильм основан на сюжетных линиях комиксов "Старик Логан" (последнее приключение стареющего Логана), "Избиение мутантов" (убийство мутантов) и "Х-23" (Росомаха встречает своего клона-девочку, которую преследует суперзлодей Злыдень).
• Хью Джекман согласился на гонорар менее обычного, лишь бы фильм получил от Американской киноассоциации рейтинг R (лица, не достигшие 17-летнего возраста, допускаются на фильм только в сопровождении одного из родителей либо законного представителя).
• Девятое и последнее исполнение Хью Джекманом роли Логана-Росомахи.
• В сцене в трейлере к фильму, где Логан выпивает на кладбище, на одном из надгробий вырезана фамилия Петерс. Имеется в виду актёр Эван Питерс, исполнитель роли Питера Максимоффа по прозвищу "Ртуть" в фильмах Брайана Сингера "Люди Икс: Дни минувшего будущего" (2014) и "Люди Икс: Апокалипсис" (2016).
• Второй фильм франшизы "Люди Икс", премьера которого состоялась на международном кинофестивале (в Берлине). Премьерный показ фантастического боевика "Люди Икс: Последняя битва" в 2006 году состоялся на фестивале в Каннах.
• Считалось, что присвоение фильму возрастного ограничения R (до 17 лет в сопровождении взрослых) стало следствием успеха «Дэдпула» (2016), так как до этого все части серии о Росомахе были маркированы рейтингом PG-13 (детям до 13 лет просмотр не желателен). Однако продюсер проекта Саймон Кинберг заявил, что это решение снимать взрослое кино было принято заранее.
• Продюсеры вели переговоры с Ливом Шрайбером, пытаясь организовать появления его персонажа Виктора Крида (Саблезубого) из картины «Люди Икс: Начало. Росомаха» (2009), однако эти планы не осуществились.
• Это первое появление на большом экране Лоры Кинни, известной как мутант Икс-23.
• Специально для роли мутанта Калибана Стивен Мерчант побрился налысо. В фильме «Люди Икс: Апокалипсис» (2016) этого персонажа сыграл Томас Лемаркус.
• Название «Логан» отсылает к графической новелле Марка Миллара «Старик Логан».
• До участия в этом фильме Хью Джекман и Ричард Э. Грант оба играли в картинах о Дракуле. Джекман исполнил главную роль в «Ван Хельсинге» (2004), а Грант снялся в «Дракуле» (1992).
• По словам создателей, «Логан» можно считать скорее перезапуском, нежели продолжением лент «Люди Икс: Начало. Росомаха» (2009) и «Росомаха: Бессмертный» (2013). События в нем происходят в альтернативном временном пространстве, заданном в фильме 2014 года «Люди Икс: Дни минувшего будущего».
• «Логан» должен стать последним фильмом, в котором Хью Джекман появляется в роли Росомахи. Говоря о причинах, актер ссылается на свой возраст и проблемы со здоровьем: в 2013 году у Джекмана выявили рак кожи.
• Последний фильм с Патриком Стюартом в роли Профессора Ксавьера. Для актера же этот фильм стал первым в карьере, для роли в котором пришлось сбросить вес.
• Несмотря на то, что этот фильм является третьим в трилогии о Росомахе, он не является прямым продолжением первых двух, поскольку временная линия была изменена в фильме "Люди Икс: Дни минувшего будущего".
• В отличии от последних фильмов серии "Люди Икс", "Логан" не имеет сцены после титров, и впервые за все время имеет начальные титры с указанием имен актеров и съемочной группы.
• Первый фильм в трилогии о Росомахе, не имеющий в названии этот псевдоним.
• Создатели фильма черпали вдохновение из фильмов "Непрощенный" (1992), "Рестлер" (2008) и "Шейн" (1953). Последний Чарльз Ксавьер и Лора смотрят в отеле.
• Хью Джекман и Патрик Стюарт — единственные актёры, снимавшиеся в предыдущих фильмах франшизы. В фильме отсутствуют упоминания конкретных персонажей из прошлых фильмов и их судьбы.
• Последний фильм кинематографической вселенной "Людей Икс", в котором сыграли Хью Джекман и Патрик Стюарт.

MediaInfo

General
Unique ID : 245872793310861085012280707000723368226 (0xB8F960A4CE8A09A9BD995C9E18E4E922)
Complete name : E:\Мои рипы\Логан Нуар\Logan [email protected]
Format : Matroska
Format version : Version 4 / Version 2
File size : 3.62 GiB
Duration : 2h 17mn
Overall bit rate : 3 767 Kbps
Movie name : Logan [email protected]
Encoded date : UTC 2017-05-29 08:51:11
Writing application : mkvmerge v12.0.0 ('Trust / Lust') 64bit
Writing library : libebml v1.3.4 + libmatroska v1.4.5
DURATION : 02:13:51.857000000
NUMBER_OF_FRAMES : 1951
NUMBER_OF_BYTES : 49832
_STATISTICS_WRITING_APP : mkvmerge v12.0.0 ('Trust / Lust') 64bit
_STATISTICS_WRITING_DATE_UTC : 2017-05-29 08:51:11
_STATISTICS_TAGS : BPS DURATION NUMBER_OF_FRAMES NUMBER_OF_BYTES
Attachment : Yes
Video
ID : 1
Format : AVC
Format/Info : Advanced Video Codec
Format profile : [email protected]
Format settings, CABAC : Yes
Format settings, ReFrames : 11 frames
Codec ID : V_MPEG4/ISO/AVC
Duration : 2h 17mn
Bit rate : 2 860 Kbps
Width : 1 152 pixels
Height : 484 pixels
Display aspect ratio : 2.40:1
Frame rate mode : Constant
Frame rate : 23.976 fps
Color space : YUV
Chroma subsampling : 4:2:0
Bit depth : 8 bits
Scan type : Progressive
Bits/(Pixel*Frame) : 0.214
Stream size : 2.75 GiB (76%)
Title : Logan [email protected]
Writing library : x264 core 148 r2762 90a61ec
Encoding settings : cabac=1 / ref=11 / deblock=1:-3:-3 / analyse=0x3:0x113 / me=umh / subme=11 / psy=1 / psy_rd=1.00:0.05 / mixed_ref=1 / me_range=48 / chroma_me=1 / trellis=2 / 8x8dct=1 / cqm=0 / deadzone=21,11 / fast_pskip=0 / chroma_qp_offset=-3 / threads=6 / lookahead_threads=6 / sliced_threads=0 / nr=0 / decimate=1 / interlaced=0 / bluray_compat=0 / constrained_intra=0 / bframes=16 / b_pyramid=2 / b_adapt=2 / b_bias=0 / direct=3 / weightb=1 / open_gop=0 / weightp=2 / keyint=240 / keyint_min=23 / scenecut=40 / intra_refresh=0 / rc_lookahead=60 / rc=crf / mbtree=0 / crf=17.0 / qcomp=0.60 / qpmin=0 / qpmax=69 / qpstep=4 / vbv_maxrate=50000 / vbv_bufsize=62500 / crf_max=0.0 / nal_hrd=none / filler=0 / ip_ratio=1.40 / pb_ratio=1.30 / aq=3:0.90
Language : English
Default : Yes
Forced : No
Color primaries : BT.709
Transfer characteristics : BT.709
Matrix coefficients : BT.709
DURATION : 02:17:24.361000000
NUMBER_OF_FRAMES : 197667
NUMBER_OF_BYTES : 3022500269
_STATISTICS_WRITING_APP : mkvmerge v12.0.0 ('Trust / Lust') 64bit
_STATISTICS_WRITING_DATE_UTC : 2017-05-29 08:51:11
_STATISTICS_TAGS : BPS DURATION NUMBER_OF_FRAMES NUMBER_OF_BYTES
Audio #1
ID : 2
Format : AC-3
Format/Info : Audio Coding 3
Mode extension : CM (complete main)
Format settings, Endianness : Big
Codec ID : A_AC3
Duration : 2h 17mn
Bit rate mode : Constant
Bit rate : 384 Kbps
Channel(s) : 6 channels
Channel positions : Front: L C R, Side: L R, LFE
Sampling rate : 48.0 KHz
Bit depth : 16 bits
Compression mode : Lossy
Stream size : 377 MiB (10%)
Title : Dub
Language : Russian
Default : Yes
Forced : No
Audio #2
ID : 3
Format : AC-3
Format/Info : Audio Coding 3
Mode extension : CM (complete main)
Format settings, Endianness : Big
Codec ID : A_AC3
Duration : 2h 17mn
Bit rate mode : Constant
Bit rate : 448 Kbps
Channel(s) : 6 channels
Channel positions : Front: L C R, Side: L R, LFE
Sampling rate : 48.0 KHz
Bit depth : 16 bits
Compression mode : Lossy
Stream size : 440 MiB (12%)
Title : Eng
Language : English
Default : No
Forced : No
Text #1
ID : 4
Format : UTF-8
Codec ID : S_TEXT/UTF8
Codec ID/Info : UTF-8 Plain Text
Title : Rus forsed
Language : Russian
Default : Yes
Forced : No
Text #2
ID : 5
Format : UTF-8
Codec ID : S_TEXT/UTF8
Codec ID/Info : UTF-8 Plain Text
Title : Rus
Language : Russian
Default : No
Forced : No
Text #3
ID : 6
Format : UTF-8
Codec ID : S_TEXT/UTF8
Codec ID/Info : UTF-8 Plain Text
Title : Eng
Language : English
Default : No
Forced : No
Text #4
ID : 7
Format : UTF-8
Codec ID : S_TEXT/UTF8
Codec ID/Info : UTF-8 Plain Text
Title : Eng SDH
Language : English
Default : No
Forced : No
Menu
00:00:00.000 : en:Chapter 01
00:05:35.126 : en:Chapter 02
00:09:18.558 : en:Chapter 03
00:11:41.158 : en:Chapter 04
00:16:23.232 : en:Chapter 05
00:20:11.668 : en:Chapter 06
00:24:26.715 : en:Chapter 07
00:26:11.903 : en:Chapter 08
00:30:13.311 : en:Chapter 09
00:31:59.125 : en:Chapter 10
00:34:56.886 : en:Chapter 11
00:39:53.432 : en:Chapter 12
00:42:55.573 : en:Chapter 13
00:45:03.826 : en:Chapter 14
00:47:53.412 : en:Chapter 15
00:49:39.559 : en:Chapter 16
00:52:14.422 : en:Chapter 17
00:54:30.517 : en:Chapter 18
00:57:44.210 : en:Chapter 19
01:00:10.398 : en:Chapter 20
01:03:53.830 : en:Chapter 21
01:06:55.511 : en:Chapter 22
01:09:54.773 : en:Chapter 23
01:13:15.891 : en:Chapter 24
01:18:43.593 : en:Chapter 25
01:21:50.906 : en:Chapter 26
01:25:52.188 : en:Chapter 27
01:28:38.813 : en:Chapter 28
01:32:41.430 : en:Chapter 29
01:35:29.724 : en:Chapter 30
01:41:03.432 : en:Chapter 31
01:43:39.880 : en:Chapter 32
01:49:38.989 : en:Chapter 33
01:54:20.562 : en:Chapter 34
01:57:00.430 : en:Chapter 35
01:59:20.403 : en:Chapter 36
02:01:14.433 : en:Chapter 37
02:05:09.627 : en:Chapter 38
02:06:40.551 : en:Chapter 39
02:11:07.860 : en:Chapter 40

x264 log

VIDEO ENCODING
x264 [info]: frame I:1631 Avg QP:15.08 size: 69074 PSNR Mean Y:47.91 U:99.98 V:99.97 Avg:49.66 Global:48.99
x264 [info]: frame P:47032 Avg QP:16.70 size: 28752 PSNR Mean Y:46.16 U:99.99 V:99.98 Avg:47.92 Global:47.13
x264 [info]: frame B:149004 Avg QP:18.87 size: 10453 PSNR Mean Y:45.59 U:99.98 V:99.98 Avg:47.34 Global:46.45
x264 [info]: consecutive B-frames: 3.5% 3.9% 11.3% 23.0% 16.8% 28.6% 5.3% 1.8% 1.5% 1.0% 0.8% 0.9% 0.5% 0.4% 0.2% 0.3% 0.3%
x264 [total]: encoded 197667 frames, 2.05 fps, 2932.91 kb/s

Скриншот c названием фильма

Скриншоты

Убедительная просьба пожалуйста кто скачал не бросайте раздачу!!!

If you like the topic, please click share to help develop our site.

To download the file disable ad blocking, and reload the page.

disable adblock How to disable ad blocking?

Download by magnet link 3.62 GB Download Torrent

Login using:

Similar topics



   
Current time is: 25-May 19:03 :: All times are UTC + 3